Tvoj účet nieje VIP.
Preto sú tvoje funkcie a možnosti značne obmedzené.
Pre aktiváciu VIP klikni sem.

Bohemove / Rent (2005)(Mastered)(Hevc)(1080p)(BluRay)(English)(CZtit) = CSFD 75% | SkTorrent.eu

Cz-SkTorrent open Tracker, na volné zdielanie súborov. Pridajte sa k nasej komunite a získajte pristup k tisícom torrentov.

  • vysoká rýchlost
  • úplne zdarma
  • prevazne Slovenska a Ceska scena
  • ste tu s nami uz 5 rokov - Dakujeme
  • Vitaj Guest (Login) Ako stahovat
    torrenty?
    Torrenty:
    v1 textová
    v2 obrázková
    v3 online filmy
    Ako sa stat
    Uploaderom
    Online
    Filmy
    Forum
    Pravidlá
    BitTorrent
    klient
    Meno: Heslo:
    Zaregistrovat
    Po zaregistrovaní mozte volne stahovat
    Zabudol som heslo

    Torrent's details
    Bohemove / Rent (2005)(Mastered)(Hevc)(1080p)(BluRay)(English)(CZtit) = CSFD 75% Názov:Bohemove / Rent (2005)(Mastered)(Hevc)(1080p)(BluRay)(English)(CZtit) = CSFD 75% Hodnocení:N/A Stiahnut
    Pozriet Online
    Kategória:Filmy s titulkama Velikost:2.2 GB BitTorrent klient
    Pridaný: Súbory:
    Skontrolován:2022-04-05 Peerov:1 (Seed: 0, Leech: 1)
    Zaner:Drama,Muzikal,Romanticky Uploader:Uvidis, az ked budes
    VIP
    Kúp nám Pivo 1,10€

    Kúp nám Pivo
    Podporte nas na Facebooku !
    Pridaj do zalozky
    Pridaj do zalozky






    [center]





    Movie Name: Rent (2005)(Mastered)
    IMDb Rating: 6.9/10

    Quality: 1080p (BluRay)
    Language: English (AAC 5.1)
    Subtitles: English/Czech
    Director: Chris Columbus
    Writers: Jonathan Larson (book by) Stephen Chbosky (screenplay by)
    Genres: Musical | Romance | Drama  


    This is the film version of the Pulitzer and Tony Award winning musical about Bohemians in the East Village of New York City struggling with life, love and AIDS, and the impacts they have on America.
    ***
    Žít naplno, jenom tady a teď. Filmové zpracování slavného muzikálu ověnčeného Pulitzerovou cenou... Muzikál Rent měl premiéru v roce 1996 na Broadwayi a zaznamenal fenomenální divácký úspěch. Jedná se o netradiční rockový muzikál Jonathana Larsona, který volně vypráví příběh klasické Pucciniho opery Bohéma. Na broadwayských jevištích vydržel dlouhých dvanáct let a jako jeden z prvních představil na scéně homosexuální a bisexuální postavy. Mírně upravený děj představil v roce 2005 stejnojmenný film v režii Chrise Columbuse. Ten zachycuje život skupiny mladých kontroverzních umělců během jednoho roku v bohémské newyorské čtvrti East Village. Mladí vyděděnci se snaží přežívat ve zrádném světě peněz, drog a AIDS. V hlavních rolích se představila většina členů původního broadwayského obsazení, výjimku představují pouze Rosario Dawsonová a Tracie Thomsová






    [/center]

    Format                                   : Matroska
    Format version                           : Version 4
    File size                                : 2.23 GiB
    Duration                                 : 2 h 15 min
    Overall bit rate                         : 2 363 kb/s
    Movie name                               : Rent
    Encoded date                             : UTC 2017-08-03 18:10:39
    Writing application                      : mkvmerge v9.8.0 ('Kuglblids') 64bit
    Writing library                          : libebml v1.3.4 + libmatroska v1.4.5
    Cover                                    : Yes
    Attachments                              : cover.jpg

    Video
    ID                                       : 1
    Format                                   : HEVC
    Format/Info                              : High Efficiency Video Coding
    Format profile                           : Main 10@L4@Main
    Codec ID                                 : V_MPEGH/ISO/HEVC
    Duration                                 : 2 h 15 min
    Bit rate                                 : 1 937 kb/s
    Width                                    : 1 920 pixels
    Height                                   : 800 pixels
    Display aspect ratio                     : 2.40:1
    Frame rate mode                          : Constant
    Frame rate                               : 23.976 (24000/1001) FPS
    Color space                              : YUV
    Chroma subsampling                       : 4:2:0
    Bit depth                                : 10 bits
    Bits/(Pixel*Frame)                       : 0.053
    Stream size                              : 1.83 GiB (82%)
    Title                                    : HEVC
    Writing library                          : x265 1.9+194-6d3849d648f0:[Linux][GCC 5.3.1][64 bit] 10bit
    Encoding settings                        : wpp / ctu=64 / min-cu-size=8 / max-tu-size=32 / tu-intra-depth=1 / tu-inter-depth=1 / me=1 / subme=2 / merange=57 / no-rect / no-amp / max-merge=2 / temporal-mvp / no-early-skip / recursion-skip / rdpenalty=0 / no-tskip / no-tskip-fast / strong-intra-smoothing / no-lossless / no-cu-lossless / no-constrained-intra / no-fast-intra / open-gop / no-temporal-layers / interlace=0 / keyint=250 / min-keyint=23 / scenecut=40 / rc-lookahead=20 / lookahead-slices=5 / bframes=4 / bframe-bias=0 / b-adapt=2 / ref=3 / limit-refs=3 / no-limit-modes / weightp / no-weightb / aq-mode=1 / qg-size=32 / aq-strength=1.00 / cbqpoffs=0 / crqpoffs=0 / rd=3 / psy-rd=2.00 / rdoq-level=0 / psy-rdoq=0.00 / no-rd-refine / signhide / deblock=0:0 / sao / no-sao-non-deblock / b-pyramid / cutree / no-intra-refresh / rc=crf / crf=22.0 / qcomp=0.60 / qpmin=0 / qpmax=51 / qpstep=4 / ipratio=1.40 / pbratio=1.30
    Language                                 : English
    Default                                  : Yes
    Forced                                   : No

    Audio
    ID                                       : 2
    Format                                   : AAC LC
    Format/Info                              : Advanced Audio Codec Low Complexity
    Codec ID                                 : A_AAC-2
    Duration                                 : 2 h 15 min
    Bit rate                                 : 384 kb/s
    Channel(s)                               : 6 channels
    Channel layout                           : C L R Ls Rs LFE
    Sampling rate                            : 48.0 kHz
    Frame rate                               : 46.875 FPS (1024 SPF)
    Compression mode                         : Lossy
    Stream size                              : 371 MiB (16%)
    Title                                    : Surround 5.1
    Language                                 : English
    Default                                  : Yes
    Forced                                   : No

    Text #1
    ID                                       : 3
    Format                                   : PGS
    Muxing mode                              : zlib
    Codec ID                                 : S_HDMV/PGS
    Codec ID/Info                            : Picture based subtitle format used on BDs/HD-DVDs
    Duration                                 : 2 h 6 min
    Bit rate                                 : 16.2 kb/s
    Count of elements                        : 3562
    Stream size                              : 14.6 MiB (1%)
    Title                                    : EN.HDMV PGS
    Language                                 : English
    Default                                  : No
    Forced                                   : No

    Text #2
    ID                                       : 4
    Format                                   : PGS
    Muxing mode                              : zlib
    Codec ID                                 : S_HDMV/PGS
    Codec ID/Info                            : Picture based subtitle format used on BDs/HD-DVDs
    Duration                                 : 2 h 11 min
    Bit rate                                 : 9 756 b/s
    Count of elements                        : 3830
    Stream size                              : 9.16 MiB (0%)
    Title                                    : EN.HI.HDMV PGS
    Language                                 : English
    Default                                  : No
    Forced                                   : No

    Text #3
    ID                                       : 5
    Format                                   : PGS
    Muxing mode                              : zlib
    Codec ID                                 : S_HDMV/PGS
    Codec ID/Info                            : Picture based subtitle format used on BDs/HD-DVDs
    Duration                                 : 2 h 6 min
    Bit rate                                 : 15.1 kb/s
    Count of elements                        : 3588
    Stream size                              : 13.7 MiB (0%)
    Title                                    : CZE.HDMV PGS
    Language                                 : Czech
    Default                                  : Yes
    Forced                                   : No












    pohee, PetrJaros,

    + Pridaj vlastnu verziu tohto torrentu +


    Upozornenie:
    Ziadny zo zobrazených súborov sa nenachádza na tomto serveri. Server slúzi len k síreniu vlastnorucne vytvorených aplikácií, videí, hudby ai. Autori stránok nenesú ziadnu zodpovednost za zverejnené odkazy, komentáre a obsah súborov. Vsetky komentáre, odkazy, súbory ktoré by svojou povahou mohli byt v rozpore zo zákonmi sem vkladáte na vlastnú zodpovednost. Autori stránok si vyhradzujú právo cenzúry odkazov, komentárov príp. súborov, ktoré by svojou povahou mohli byt v rozpore zo zákonmi a dobrými mravmi. Dodrzujte pravidlá!


    No comments...


    Back

    Na serveru se nenalézají zádne soubory. Za odkazy jsou výhradně zodpovědní uzivatelé a návstěvníci tohoto trackeru. Administrátor není zodpovědný za pridaný obsah ani za skody zpusobené uzivateli. Rozsirovat stránku nebo její obsah bez souhlasu ownera je zakázano. Nesmíte pouzívat tuto webovou stránku pro distribuovaní nebo download zádného materiálu pokud nemáte povolení od príslusného vlastníka práv. Uzivatelé jsou zodpovědní za dodrzování těchto pravidel a podmínek. Owner má právo kdykoliv změnit pravidla tohoto trackeru.

    [ Script trval: 0.095 sec. ] - [ GZIP: enabled ]
    Je zhruba 20:43
    sql

    TOPlist