Tvoj účet nieje VIP.
Preto sú tvoje funkcie a možnosti značne obmedzené.
Pre aktiváciu VIP klikni sem.

Boku no Hero Academia / My Hero Academia - 3. serie (2018)(JP/EN+CZtit.)[1080p][HEVC] = CSFD 85% | SkTorrent.eu

Cz-SkTorrent open Tracker, na volné zdielanie súborov. Pridajte sa k nasej komunite a získajte pristup k tisícom torrentov.

  • vysoká rýchlost
  • úplne zdarma
  • prevazne Slovenska a Ceska scena
  • ste tu s nami uz 5 rokov - Dakujeme
  • Vitaj Guest (Login) Ako stahovat
    torrenty?
    Torrenty:
    v1 textová
    v2 obrázková
    v3 online filmy
    Ako sa stat
    Uploaderom
    Online
    Filmy
    Forum
    Pravidlá
    BitTorrent
    klient
    Meno: Heslo:
    Zaregistrovat
    Po zaregistrovaní mozte volne stahovat
    Zabudol som heslo

    Torrent's details
    Boku no Hero Academia / My Hero Academia - 3. serie (2018)(JP/EN+CZtit.)[1080p][HEVC] = CSFD 85% Názov:Boku no Hero Academia / My Hero Academia - 3. serie (2018)(JP/EN+CZtit.)[1080p][HEVC] = CSFD 85% Hodnocení: Stiahnut
    Pozriet Online
    Kategória:Seriál Velikost:7.8 GB BitTorrent klient
    Pridaný: Súbory:
    Skontrolován:2021-09-11 Peerov:7 (Seed: 6, Leech: 1)
    Zaner:Akcni,Animovany,Fantasy Uploader:Uvidis, az ked budes
    VIP
    Kúp nám Pivo 1,10€

    Kúp nám Pivo
    Podporte nas na Facebooku !
    Pridaj do zalozky
    Pridaj do zalozky




    Boku no Hero Academia / My Hero Academia - 3. serie (2018) = CSFD 85%



           

    Jazyk: japonský, anglický
    Titulky: české, anglické
    Zdroj CZ tituliek: hns.sk - Luckyman + vlastná úprava
    Žáner: Animovaný / Akční / Fantasy
    Témy: Anime, Akční, Komedie,Podle mangy, Superschopnosti, Školní život, Šónen
    Japonsko, 2018, 25x24 min

    Režie: Kendži Nagasaki
    Předloha: Kóhei Horikoši (komiks)
    Scénář: Jósuke Kuroda
    Hudba: Júki Hajaši
    Japonský dabing: Daiki Yamashita, Nobuhiko Okamoto, Kenta Miyake, Yuki Kaji, Junichi Suwabe, Toshiki Masuda, Ayane Sakura, Aoi Yūki, Misato Fukue, Hiro Shimono,...
    Anglický dabing: Lara Woodhull, Kate Oxley, Christopher Sabat, David Matranga, Alex Organ, Justin Cook, Luci Christian, Monica Rial, Leah Clark, Jason Liebrecht,...

    Predtím, než začnete, pozrite si:
    1. Boku no Hero Academia / My Hero Academia - 1. serie (2016)
    2. Boku no Hero Academia / My Hero Academia - 2. serie (2017)
    3. Boku no Hero Academia: Futari no hero / My Hero Academia: Two Heroes (film)

    Popis
    Začíná nejteplejší část roku a jako všude jinde, tak i na akademii pro hrdiny nastává období velkých letních prázdnin. Midoriya si však ani během oficiálního volna nemůže dovolit tak úplně polevit ve svém tréningu. Jeho schopnost je stále ještě velmi nedokonalá a je potřeba na jejím ovládnutí intenzivně pracovat. Tím spíš, že se čím dál víc přibližuje den, kdy jeho mistr All Might nadobro ztratí svoji sílu. Od toho, aby se přiblížil svému cíli stát se velkým hrdinou, tu ale je letní tréninkový kemp, kam se chystá společně se svými spolužáky z akademie. Jenže, i když to tak možná nevypadá, zlo nikdy nespí. A tak je víc než jasné, že je pouze otázkou času, kdy opět zaútočí jejich úhlavní nepřátelé.





       

    Hlavní
    Formát: Matroska
    Format version: Version 4
    Velikost souboru: 379 MiB
    Duration: 23 min 52 s
    Celkový BitRate: 2 221 kb/s
    Encoded date: UTC 2019-10-12 16:00:06
    Použitý software: mkvmerge v38.0.0 ('The Silent Type') 64-bit
    Enkódoval: libebml v1.3.9 + libmatroska v1.5.2 / Lavf58.20.100

    Video
    Formát: HEVC
    Formát/Info: High Efficiency Video Coding
    Format profile: Main 10@L4@Main
    Codec ID: V_MPEGH/ISO/HEVC
    Duration: 23 min 52 s
    Bit rate: 1 950 kb/s
    Šířka: 1 920pixely
    Výška : 1 080pixely
    Poměr stran: 16:9
    Frame rate mode: Constant
    Frame rate: 23,976 (23976/1000) FPS
    Original frame rate: 23,976 (24000/1001) FPS
    Color space: YUV
    Chroma subsampling: 4:2:0
    Bit depth: 10 bits
    Bits/(Pixel*Frame): 0.039
    Stream size: 333 MiB (88%)
    Titul: [Judas] x265 10b
    Enkódoval: x265 2.9:[Windows][GCC 8.2.0][64 bit] 10bit
    Default: Ano
    Forced: Ne
    Color range: Limited
    Color primaries: BT.709
    Transfer characteristics: BT.709
    Matrix coefficients: BT.709

    Audio #1
    Formát: Opus
    Codec ID: A_OPUS
    Duration: 23 min 52 s
    Bit rate: 122 kb/s
    Kanál(y): 2 kanály
    Channel layout: L R
    Sampling rate: 48,0 kHz
    Frame rate: 50,000 FPS (960 SPF)
    Compression mode: Lossy
    Video delay: -7 ms
    Stream size: 20,8 MiB (5%)
    Titul: [Judas] Stereo (Opus 128KBps)
    Jazyk: Japanese
    Default: Ano
    Forced: Ne

    Audio #2
    Formát: Opus
    Codec ID: A_OPUS
    Duration: 23 min 52 s
    Bit rate: 126 kb/s
    Kanál(y): 2 kanály
    Channel layout: L R
    Sampling rate: 48,0 kHz
    Frame rate: 50,000 FPS (960 SPF)
    Compression mode: Lossy
    Video delay: -7 ms
    Stream size: 21,6 MiB (6%)
    Titul: [Judas] Stereo (Opus 128KBps)
    Jazyk: English
    Default: Ne
    Forced: Ne

    Text #1
    Formát: PGS
    Muxing mode: zlib
    Codec ID: S_HDMV/PGS
    Codec ID/Info: Picture based subtitle format used on BDs/HD-DVDs
    Duration: 23 min 48 s
    Bit rate: 56,0 kb/s
    Count of elements: 854
    Stream size: 9,53 MiB (3%)
    Titul: English[Full]
    Jazyk: English
    Default: Ne
    Forced: Ne

    Text #2
    Formát: PGS
    Muxing mode: zlib
    Codec ID: S_HDMV/PGS
    Codec ID/Info: Picture based subtitle format used on BDs/HD-DVDs
    Duration: 23 min 14 s
    Bit rate: 6 795 b/s
    Count of elements: 98
    Stream size: 1,13 MiB (0%)
    Titul English[Signs-Songs]
    Jazyk: English
    Default: Ano
    Forced: Ne


    Pre lepšie vyhľadávanie anime na webe SKT si nastavte vo vyhľadávaní kategóriu Animovany









    Trismegistos, pohee, shadowville,

    + Pridaj vlastnu verziu tohto torrentu +


    Upozornenie:
    Ziadny zo zobrazených súborov sa nenachádza na tomto serveri. Server slúzi len k síreniu vlastnorucne vytvorených aplikácií, videí, hudby ai. Autori stránok nenesú ziadnu zodpovednost za zverejnené odkazy, komentáre a obsah súborov. Vsetky komentáre, odkazy, súbory ktoré by svojou povahou mohli byt v rozpore zo zákonmi sem vkladáte na vlastnú zodpovednost. Autori stránok si vyhradzujú právo cenzúry odkazov, komentárov príp. súborov, ktoré by svojou povahou mohli byt v rozpore zo zákonmi a dobrými mravmi. Dodrzujte pravidlá!




    Uploader
    11/09/2021 20.28.18
    V ako poradí sledovať Boku no Hero Academia / My Hero Academia?

    1. Boku no Hero Academia / My Hero Academia - 1. serie
    2. Boku no Hero Academia / My Hero Academia - 2. serie
    3. Boku no Hero Academia: Futari no hero / My Hero Academia: Two Heroes (film)
    4. Boku no Hero Academia / My Hero Academia - 3. serie
    5. Boku no Hero Academia / My Hero Academia - 4. serie
    6. Boku no Hero Academia - Heroes:Rising / My Hero Academia: Heroes:Rising (film)
    7. Boku no Hero Academia / My Hero Academia - 5. serie

    Ak vyjde nová séria/film, budem vás o tom informovať


    Back

    Na serveru se nenalézají zádne soubory. Za odkazy jsou výhradně zodpovědní uzivatelé a návstěvníci tohoto trackeru. Administrátor není zodpovědný za pridaný obsah ani za skody zpusobené uzivateli. Rozsirovat stránku nebo její obsah bez souhlasu ownera je zakázano. Nesmíte pouzívat tuto webovou stránku pro distribuovaní nebo download zádného materiálu pokud nemáte povolení od príslusného vlastníka práv. Uzivatelé jsou zodpovědní za dodrzování těchto pravidel a podmínek. Owner má právo kdykoliv změnit pravidla tohoto trackeru.

    [ Script trval: 0.023 sec. ] - [ GZIP: enabled ]
    Je zhruba 22:46
    neviem

    TOPlist