Tvoj účet nieje VIP.
Preto sú tvoje funkcie a možnosti značne obmedzené.
Pre aktiváciu VIP klikni sem.

Brahmastra Part One - Shiva (2022)(WebDl)(x264)(HD)(720p)(EN)(CZ tit+MultiSub) = CSFD 60% | SkTorrent.eu

Cz-SkTorrent open Tracker, na volné zdieľanie súborov. Pridajte sa k našej komunite a získajte prístup k tisícom torrentov.

  • vysoká rýchlosť
  • úplne zdarma
  • prevažne Slovenská a Česká scéna
  • ste tu s nami už 10 rokov - Ďakujeme
  • Vitaj Guest (Login) Ako stahovat
    torrenty?
    Torrenty:
    v1 textová
    v2 obrázková
    Ako sa stat
    Uploaderom
    Online
    Filmy
    Forum
    Pravidlá
    SkTSocial
    BitTorrent
    klient
    Meno: Heslo:
    Zaregistrovat
    Po zaregistrovaní mozte volne stahovat
    Zabudol som heslo

    Brahmastra Part One - Shiva (2022)(WebDl)(x264)(HD)(720p)(EN)(CZ tit+MultiSub) = CSFD 60% Názov:Brahmastra Part One - Shiva (2022)(WebDl)(x264)(HD)(720p)(EN)(CZ tit+MultiSub) = CSFD 60% Hodnocení: Stiahnut
    Pozriet Online
    Kategória:HD Filmy Velikost:2.9 GB BitTorrent klient
    Pridaný: Súbory:
    Skontrolován:2022-12-06 Peerov:18 (Seed: 18, Leech: 0)
    Zaner:Akcni,Dobrodruzny,Fantasy,Romanticky Uploader:Uvidis, az ked budes
    VIP
    Kúp nám Pivo 1,10€

    Kúp nám Pivo

    Pridaj do zalozky
    Pridaj do zalozky






    [center]





    Movie Name: Brahmastra Part One - Shiva (2022)
    IMDb Rating: 7.0/10

    Quality: 720p (WebDL)
    Language: E-AC-3 5.1 640kb/s - English
    Subtitles: Multi
    Director: Ayan Mukherjee
    Writers: Ayan Mukherjee
    Genres: Action | Adventure | Fantasy |


    This is the story of Shiva who sets out in search of love and self-discovery. During his journey, he has to face many evil forces that threaten our existence.




    [/center]
    Format                                   : Matroska
    Format version                           : Version 4
    File size                                : 2.94 GiB
    Duration                                 : 2 h 48 min
    Overall bit rate mode                    : Variable
    Overall bit rate                         : 2 498 kb/s
    Movie name                               : Brahmāstra: Část první – Šiva
    Encoded date                             : UTC 2022-11-27 20:40:44
    Writing application                      : mkvmerge v68.0.0 ('The Curtain') 64-bit
    Writing library                          : libebml v1.4.2 + libmatroska v1.6.4

    Video
    ID                                       : 1
    Format                                   : AVC
    Format/Info                              : Advanced Video Codec
    Format profile                           : High@L3.1
    Format settings                          : CABAC / 4 Ref Frames
    Format settings, CABAC                   : Yes
    Format settings, Reference frames        : 4 frames
    Codec ID                                 : V_MPEG4/ISO/AVC
    Duration                                 : 2 h 48 min
    Bit rate mode                            : Variable
    Bit rate                                 : 2 238 kb/s
    Maximum bit rate                         : 6 375 kb/s
    Width                                    : 1 280 pixels
    Height                                   : 720 pixels
    Display aspect ratio                     : 16:9
    Frame rate mode                          : Constant
    Frame rate                               : 24.000 FPS
    Color space                              : YUV
    Chroma subsampling                       : 4:2:0
    Bit depth                                : 8 bits
    Scan type                                : Progressive
    Bits/(Pixel*Frame)                       : 0.101
    Stream size                              : 2.64 GiB (90%)
    Default                                  : Yes
    Forced                                   : No
    Color range                              : Limited
    Color primaries                          : BT.709
    Transfer characteristics                 : BT.709
    Matrix coefficients                      : BT.709

    Audio
    ID                                       : 2
    Format                                   : E-AC-3
    Format/Info                              : Enhanced AC-3
    Commercial name                          : Dolby Digital Plus
    Codec ID                                 : A_EAC3
    Duration                                 : 2 h 48 min
    Bit rate mode                            : Constant
    Bit rate                                 : 256 kb/s
    Channel(s)                               : 6 channels
    Channel layout                           : L R C LFE Ls Rs
    Sampling rate                            : 48.0 kHz
    Frame rate                               : 31.250 FPS (1536 SPF)
    Compression mode                         : Lossy
    Stream size                              : 309 MiB (10%)
    Language                                 : English
    Service kind                             : Complete Main
    Default                                  : Yes
    Forced                                   : No

    Text #1
    ID                                       : 3
    Format                                   : UTF-8
    Codec ID                                 : S_TEXT/UTF8
    Codec ID/Info                            : UTF-8 Plain Text
    Duration                                 : 2 h 46 min
    Bit rate                                 : 38 b/s
    Frame rate                               : 0.176 FPS
    Count of elements                        : 1764
    Stream size                              : 46.7 KiB (0%)
    Language                                 : Danish
    Default                                  : No
    Forced                                   : No

    Text #2
    ID                                       : 4
    Format                                   : UTF-8
    Codec ID                                 : S_TEXT/UTF8
    Codec ID/Info                            : UTF-8 Plain Text
    Duration                                 : 2 h 46 min
    Bit rate                                 : 41 b/s
    Frame rate                               : 0.169 FPS
    Count of elements                        : 1689
    Stream size                              : 50.7 KiB (0%)
    Language                                 : German
    Default                                  : No
    Forced                                   : No

    Text #3
    ID                                       : 5
    Format                                   : UTF-8
    Codec ID                                 : S_TEXT/UTF8
    Codec ID/Info                            : UTF-8 Plain Text
    Duration                                 : 1 h 40 min
    Bit rate                                 : 6 b/s
    Frame rate                               : 0.027 FPS
    Count of elements                        : 161
    Stream size                              : 4.75 KiB (0%)
    Language                                 : English
    Default                                  : No
    Forced                                   : No

    Text #4
    ID                                       : 6
    Format                                   : UTF-8
    Codec ID                                 : S_TEXT/UTF8
    Codec ID/Info                            : UTF-8 Plain Text
    Duration                                 : 2 h 37 min
    Bit rate                                 : 56 b/s
    Frame rate                               : 0.224 FPS
    Count of elements                        : 2120
    Stream size                              : 65.2 KiB (0%)
    Language                                 : English
    Default                                  : No
    Forced                                   : No

    Text #5
    ID                                       : 7
    Format                                   : UTF-8
    Codec ID                                 : S_TEXT/UTF8
    Codec ID/Info                            : UTF-8 Plain Text
    Duration                                 : 2 h 46 min
    Bit rate                                 : 42 b/s
    Frame rate                               : 0.175 FPS
    Count of elements                        : 1748
    Stream size                              : 51.7 KiB (0%)
    Language                                 : Spanish
    Default                                  : No
    Forced                                   : No

    Text #6
    ID                                       : 8
    Format                                   : UTF-8
    Codec ID                                 : S_TEXT/UTF8
    Codec ID/Info                            : UTF-8 Plain Text
    Duration                                 : 2 h 46 min
    Bit rate                                 : 40 b/s
    Frame rate                               : 0.170 FPS
    Count of elements                        : 1706
    Stream size                              : 49.4 KiB (0%)
    Language                                 : Spanish
    Default                                  : No
    Forced                                   : No

    Text #7
    ID                                       : 9
    Format                                   : UTF-8
    Codec ID                                 : S_TEXT/UTF8
    Codec ID/Info                            : UTF-8 Plain Text
    Duration                                 : 2 h 46 min
    Bit rate                                 : 42 b/s
    Frame rate                               : 0.172 FPS
    Count of elements                        : 1726
    Stream size                              : 52.4 KiB (0%)
    Language                                 : French
    Default                                  : No
    Forced                                   : No

    Text #8
    ID                                       : 10
    Format                                   : UTF-8
    Codec ID                                 : S_TEXT/UTF8
    Codec ID/Info                            : UTF-8 Plain Text
    Duration                                 : 2 h 46 min
    Bit rate                                 : 69 b/s
    Frame rate                               : 0.173 FPS
    Count of elements                        : 1735
    Stream size                              : 85.2 KiB (0%)
    Language                                 : Greek
    Default                                  : No
    Forced                                   : No

    Text #9
    ID                                       : 11
    Format                                   : UTF-8
    Codec ID                                 : S_TEXT/UTF8
    Codec ID/Info                            : UTF-8 Plain Text
    Duration                                 : 2 h 46 min
    Bit rate                                 : 38 b/s
    Frame rate                               : 0.167 FPS
    Count of elements                        : 1676
    Stream size                              : 47.2 KiB (0%)
    Language                                 : Italian
    Default                                  : No
    Forced                                   : No

    Text #10
    ID                                       : 12
    Format                                   : UTF-8
    Codec ID                                 : S_TEXT/UTF8
    Codec ID/Info                            : UTF-8 Plain Text
    Duration                                 : 2 h 46 min
    Bit rate                                 : 42 b/s
    Frame rate                               : 0.170 FPS
    Count of elements                        : 1706
    Stream size                              : 51.9 KiB (0%)
    Language                                 : Hungarian
    Default                                  : No
    Forced                                   : No

    Text #11
    ID                                       : 13
    Format                                   : UTF-8
    Codec ID                                 : S_TEXT/UTF8
    Codec ID/Info                            : UTF-8 Plain Text
    Duration                                 : 2 h 46 min
    Bit rate                                 : 38 b/s
    Frame rate                               : 0.140 FPS
    Count of elements                        : 1402
    Stream size                              : 47.2 KiB (0%)
    Language                                 : Dutch
    Default                                  : No
    Forced                                   : No

    Text #12
    ID                                       : 14
    Format                                   : UTF-8
    Codec ID                                 : S_TEXT/UTF8
    Codec ID/Info                            : UTF-8 Plain Text
    Duration                                 : 2 h 46 min
    Bit rate                                 : 38 b/s
    Frame rate                               : 0.176 FPS
    Count of elements                        : 1761
    Stream size                              : 47.6 KiB (0%)
    Language                                 : Norwegian
    Default                                  : No
    Forced                                   : No

    Text #13
    ID                                       : 15
    Format                                   : UTF-8
    Codec ID                                 : S_TEXT/UTF8
    Codec ID/Info                            : UTF-8 Plain Text
    Duration                                 : 2 h 46 min
    Bit rate                                 : 37 b/s
    Frame rate                               : 0.171 FPS
    Count of elements                        : 1708
    Stream size                              : 45.8 KiB (0%)
    Language                                 : Polish
    Default                                  : No
    Forced                                   : No

    Text #14
    ID                                       : 16
    Format                                   : UTF-8
    Codec ID                                 : S_TEXT/UTF8
    Codec ID/Info                            : UTF-8 Plain Text
    Duration                                 : 2 h 46 min
    Bit rate                                 : 42 b/s
    Frame rate                               : 0.176 FPS
    Count of elements                        : 1765
    Stream size                              : 52.4 KiB (0%)
    Language                                 : Portuguese
    Default                                  : No
    Forced                                   : No

    Text #15
    ID                                       : 17
    Format                                   : UTF-8
    Codec ID                                 : S_TEXT/UTF8
    Codec ID/Info                            : UTF-8 Plain Text
    Duration                                 : 2 h 46 min
    Bit rate                                 : 40 b/s
    Frame rate                               : 0.174 FPS
    Count of elements                        : 1743
    Stream size                              : 49.2 KiB (0%)
    Language                                 : Portuguese
    Default                                  : No
    Forced                                   : No

    Text #16
    ID                                       : 18
    Format                                   : UTF-8
    Codec ID                                 : S_TEXT/UTF8
    Codec ID/Info                            : UTF-8 Plain Text
    Duration                                 : 2 h 46 min
    Bit rate                                 : 42 b/s
    Frame rate                               : 0.160 FPS
    Count of elements                        : 1607
    Stream size                              : 51.6 KiB (0%)
    Language                                 : Romanian
    Default                                  : No
    Forced                                   : No

    Text #17
    ID                                       : 19
    Format                                   : UTF-8
    Codec ID                                 : S_TEXT/UTF8
    Codec ID/Info                            : UTF-8 Plain Text
    Duration                                 : 2 h 46 min
    Bit rate                                 : 39 b/s
    Frame rate                               : 0.176 FPS
    Count of elements                        : 1767
    Stream size                              : 47.7 KiB (0%)
    Language                                 : Slovak
    Default                                  : Yes
    Forced                                   : No

    Text #18
    ID                                       : 20
    Format                                   : UTF-8
    Codec ID                                 : S_TEXT/UTF8
    Codec ID/Info                            : UTF-8 Plain Text
    Duration                                 : 2 h 46 min
    Bit rate                                 : 41 b/s
    Frame rate                               : 0.173 FPS
    Count of elements                        : 1731
    Stream size                              : 50.4 KiB (0%)
    Language                                 : Finnish
    Default                                  : No
    Forced                                   : No

    Text #19
    ID                                       : 21
    Format                                   : UTF-8
    Codec ID                                 : S_TEXT/UTF8
    Codec ID/Info                            : UTF-8 Plain Text
    Duration                                 : 2 h 46 min
    Bit rate                                 : 38 b/s
    Frame rate                               : 0.159 FPS
    Count of elements                        : 1593
    Stream size                              : 47.2 KiB (0%)
    Language                                 : Swedish
    Default                                  : No
    Forced                                   : No

    Text #20
    ID                                       : 22
    Format                                   : UTF-8
    Codec ID                                 : S_TEXT/UTF8
    Codec ID/Info                            : UTF-8 Plain Text
    Duration                                 : 2 h 46 min
    Bit rate                                 : 40 b/s
    Frame rate                               : 0.173 FPS
    Count of elements                        : 1728
    Stream size                              : 49.0 KiB (0%)
    Language                                 : Turkish
    Default                                  : No
    Forced                                   : No

    Text #21
    ID                                       : 23
    Format                                   : UTF-8
    Codec ID                                 : S_TEXT/UTF8
    Codec ID/Info                            : UTF-8 Plain Text
    Duration                                 : 2 h 46 min
    Bit rate                                 : 38 b/s
    Frame rate                               : 0.171 FPS
    Count of elements                        : 1712
    Stream size                              : 47.0 KiB (0%)
    Language                                 : Czech
    Default                                  : No
    Forced                                   : No










    krok81, 1234DURKO, pohee, xjoni, Miira, abbadc, KarelTajta, Jooozef, Jablonka,

    + Pridaj vlastnu verziu tohto torrentu +


    Upozornenie:
    Ziadny zo zobrazených súborov sa nenachádza na tomto serveri. Server slúzi len k síreniu vlastnorucne vytvorených aplikácií, videí, hudby ai. Autori stránok nenesú ziadnu zodpovednost za zverejnené odkazy, komentáre a obsah súborov. Vsetky komentáre, odkazy, súbory ktoré by svojou povahou mohli byt v rozpore zo zákonmi sem vkladáte na vlastnú zodpovednost. Autori stránok si vyhradzujú právo cenzúry odkazov, komentárov príp. súborov, ktoré by svojou povahou mohli byt v rozpore zo zákonmi a dobrými mravmi. Dodrzujte pravidlá!





    1
    Korewuash
    Ratio 1.1

    VIP

    06/12/2022 13.43.30
    větší bitrate nemáš? Chci se na to kouknout na bedně ne na mobilu.


    Back

    Na serveru se nenalézají zádne soubory. Za odkazy jsou výhradně zodpovědní uzivatelé a návstěvníci tohoto trackeru. Administrátor není zodpovědný za pridaný obsah ani za skody zpusobené uzivateli. Nesmíte pouzívat tuto webovou stránku pro distribuovaní nebo download zádného materiálu pokud nemáte povolení od príslusného vlastníka práv. Uzivatelé jsou zodpovědní za dodrzování těchto pravidel a podmínek. Owner má právo kdykoliv změnit pravidla tohoto trackeru.

    [ Script trval: 0.087 sec. ] - [ GZIP: enabled ]
    Je zhruba 08:40
    memcache

    TOPlist