Tvoj účet nieje VIP.
Preto sú tvoje funkcie a možnosti značne obmedzené.
Pre aktiváciu VIP klikni sem.

Byl jednou jeden... člověk, vesmír, život, vynálezce, objevitel / Il était une fois... (1978-1997)(CZ) | SkTorrent.eu

Cz-SkTorrent open Tracker, na volné zdieľanie súborov. Pridajte sa k našej komunite a získajte prístup k tisícom torrentov.

  • vysoká rýchlosť
  • úplne zdarma
  • prevažne Slovenská a Česká scéna
  • ste tu s nami už 10 rokov - Ďakujeme
  • Vitaj Guest (Login) Ako stahovat
    torrenty?
    Torrenty:
    v1 textová
    v2 obrázková
    Ako sa stat
    Uploaderom
    Online
    Filmy
    Forum
    Pravidlá
    SkTSocial
    BitTorrent
    klient
    Meno: Heslo:
    Zaregistrovat
    Po zaregistrovaní mozte volne stahovat
    Zabudol som heslo

    Byl jednou jeden... člověk, vesmír, život, vynálezce, objevitel / Il était une fois... (1978-1997)(CZ) Názov:Byl jednou jeden... člověk, vesmír, život, vynálezce, objevitel / Il était une fois... (1978-1997)(CZ) Hodnocení: Stiahnut
    Pozriet Online
    Kategória:Seriál - Velikost:50.3 GB BitTorrent klient
    Pridaný: Súbory:
    Skontrolován:2024-06-30 Peerov:25 (Seed: 23, Leech: 2)
    Zaner:Animovany,Historicky,Rodinny,Sci-Fi Uploader:Uvidis, az ked budes
    VIP
    Kúp nám Pivo 1,10€

    Kúp nám Pivo
    Pridaj do zalozky
    Pridaj do zalozky



    Byl jednou jeden… (ve francouzském originále Il était une fois…) je francouzská televizní franšíza, sestávající z animovaných dětských vzdělávacích televizních seriálů, které se zaměřují na různé oblasti znalostí. Autorem franšízy je francouzský filmový producent a scenárista Albert Barillé. Vzniklo osm seriálů, jednotlivé seriály byly premiérově vysílány mezi lety 1978 a 2024.Každý seriál je zaměřen na konkrétní téma, například lidské tělo, planetu Zemi nebo slavné vynálezce. Vypravěčem je většinou Maestro, postava starého zkušeného muže s dlouhými vousy, které pokrývají téměř celé jeho tělo.

    Byl jednou jeden… člověk (1978–1979)
    Byl jednou jeden… vesmír (1982–1983)
    Byl jednou jeden… život (1986–1987)
    Byl jednou jeden… vynálezce (1994)
    Byl jednou jeden… objevitel (1996–1997)

    Rolovatelne Media Info
    Hlavní
    Celý název a cesta                       : C:\Users\Tomáš\Downloads\Byl jednou jeden\Byl jednou jeden clovek 1978\Byl Jednou Jeden Člověk 01 - Byla Jednou Jedna Zeme_656x528.mp4
    Formát                                   : MPEG-4
    Format profile                           : Base Media
    Codec ID                                 : isom (isom/iso2/avc1/mp41)
    Velikost souboru                         : 437 MiB
    Duration                                 : 23 min 5 s
    Overall bit rate mode                    : Variable
    Celkový BitRate                          : 2 648 kb/s
    Frame rate                               : 25,000 FPS
    Použitý software                         : Lavf60.3.100

    Video
    ID                                       : 1
    Formát                                   : AVC
    Formát/Info                              : Advanced Video Codec
    Format profile                           : Constrained Baseline@L3
    Format settings                          : 3 Ref Frames
    Format settings, CABAC                   : Ne
    Format settings, Reference frames        : 3 frames
    Format settings, GOP                     : M=1, N=25
    Codec ID                                 : avc1
    Codec ID/Info                            : Advanced Video Coding
    Duration                                 : 23 min 5 s
    Duration_FirstFrame                      : 40 ms
    Bit rate mode                            : Variable
    Bit rate                                 : 2 562 kb/s
    Maximum bit rate                         : 8 000 kb/s
    Šířka                                    : 656pixely
    Výška                                    : 528pixely
    Poměr stran                              : 5:4
    Frame rate mode                          : Constant
    Frame rate                               : 25,000 FPS
    Color space                              : YUV
    Chroma subsampling                       : 4:2:0
    Bit depth                                : 8 bits
    Scan type                                : Progressive
    Bits/(Pixel*Frame)                       : 0.296
    Stream size                              : 423 MiB (97%)
    Codec configuration box                  : avcC

    Audio
    ID                                       : 2
    Formát                                   : MPEG Audio
    Format version                           : Version 1
    Format profile                           : Layer 3
    Codec ID                                 : mp4a-6B
    Duration                                 : 23 min 5 s
    Bit rate mode                            : Constant
    Bit rate                                 : 80,0 kb/s
    Kanál(y)                                 : 1 kanál
    Sampling rate                            : 44,1 kHz
    Compression mode                         : Lossy
    Stream size                              : 13,2 MiB (3%)
    Default                                  : Ano
    Alternate group                          : 1


     








    šošo, polaroidik, mosin, 3p0, Johny05, MiBstarsk, Watani, Machyc79, martinzich, TaktoToNejde, drobnochov, diabol14, diabol14, tibotibo, Charlijen, HTC44, grendls, Trip77, rumik1, ElGigapso, Reardant, Rura, gerbil, Alcarmo72,

    + Pridaj vlastnu verziu tohto torrentu +


    Upozornenie:
    Ziadny zo zobrazených súborov sa nenachádza na tomto serveri. Server slúzi len k síreniu vlastnorucne vytvorených aplikácií, videí, hudby ai. Autori stránok nenesú ziadnu zodpovednost za zverejnené odkazy, komentáre a obsah súborov. Vsetky komentáre, odkazy, súbory ktoré by svojou povahou mohli byt v rozpore zo zákonmi sem vkladáte na vlastnú zodpovednost. Autori stránok si vyhradzujú právo cenzúry odkazov, komentárov príp. súborov, ktoré by svojou povahou mohli byt v rozpore zo zákonmi a dobrými mravmi. Dodrzujte pravidlá!





    0
    esus01
    Ratio 0.26

    Clen

    14/07/2024 10.14.12
    Čau mě to nefunguje. má někdo stejný problém?
    Dík

    -4
    Pepino-24
    Ratio 0.06

    Clen

    01/07/2024 10.45.09
    V době, kdy je snad vše již vyčištěné a min v HD mi přijde tento torrent zbytečný.


    --------------
    >> 01/07/2024 12.23.05
    UPLOADER: ...Ja bych to viděl,že tady někdo píše zbytečně......

    0
    mosin
    Ratio 10.31

    Member+

    30/06/2024 10.13.33
    DíK!
    Uploader
    30/06/2024 09.43.02

    >> 30/06/2024 10.03.56
    UPLOADER:


    Back

    Na serveru se nenalézají zádne soubory. Za odkazy jsou výhradně zodpovědní uzivatelé a návstěvníci tohoto trackeru. Administrátor není zodpovědný za pridaný obsah ani za skody zpusobené uzivateli. Nesmíte pouzívat tuto webovou stránku pro distribuovaní nebo download zádného materiálu pokud nemáte povolení od príslusného vlastníka práv. Uzivatelé jsou zodpovědní za dodrzování těchto pravidel a podmínek. Owner má právo kdykoliv změnit pravidla tohoto trackeru.

    [ Script trval: 0.027 sec. ] - [ GZIP: enabled ]
    Je zhruba 05:02
    memcache

    TOPlist