Tvoj účet nieje VIP.
Preto sú tvoje funkcie a možnosti značne obmedzené.
Pre aktiváciu VIP klikni sem.

Carodejnice / The VVitch: A New-England Folktale (2015)(CZ/EN)(1080p)(BDrip) = CSFD 59% | SkTorrent.eu

Cz-SkTorrent open Tracker, na volné zdielanie súborov. Pridajte sa k nasej komunite a získajte pristup k tisícom torrentov.

  • vysoká rýchlost
  • úplne zdarma
  • prevazne Slovenska a Ceska scena
  • ste tu s nami uz 5 rokov - Dakujeme
  • Vitaj Guest (Login) Ako stahovat
    torrenty?
    Torrenty:
    v1 textová
    v2 obrázková
    Ako sa stat
    Uploaderom
    Online
    Filmy
    Forum
    Pravidlá
    BitTorrent
    klient
    Meno: Heslo:
    Zaregistrovat
    Po zaregistrovaní mozte volne stahovat
    Zabudol som heslo

    Carodejnice / The VVitch: A New-England Folktale (2015)(CZ/EN)(1080p)(BDrip) = CSFD 59% Názov:Carodejnice / The VVitch: A New-England Folktale (2015)(CZ/EN)(1080p)(BDrip) = CSFD 59% Hodnocení:N/A Stiahnut
    Pozriet Online
    Kategória:HD Filmy Velikost:6.7 GB BitTorrent klient
    Pridaný: Súbory:
    Skontrolován:2022-09-28 Peerov:8 (Seed: 8, Leech: 0)
    Zaner:Horor,Mysteriozni Uploader:Uvidis, az ked budes
    VIP
    Kúp nám Pivo 1,10€

    Kúp nám Pivo
    Pridaj do zalozky
    Pridaj do zalozky




    Čarodějnice / The VVitch: A New-England Folktale (2015)(BDrip)



    Video: MKV 1080p
    Jazyk: CZ/EN
    Titulky: CZ/EN + CZ forced


    https://www.csfd.cz/film/404843-carodejnice/prehled/

    Horor / Mysteriózní
    USA / Kanada / Velká Británie, 2015, 92 min (Alternativní 89 min)


    Režie: Robert Eggers
    Scénář: Robert Eggers
    Kamera: Jarin Blaschke
    Hudba: Mark Korven
    Hrají: Anya Taylor-Joy, Ralph Ineson, Kate Dickie, Harvey Scrimshaw, Ellie Grainger, Julian Richings, Cat Simmons
    Produkce: Jay Van Hoy, Lars Knudsen, Daniel Bekerman, Jodi Redmond, Rodrigo Teixeira
    Střih: Louise Ford
    Scénografie: Craig Lathrop, Mary Kirkland
    Kostýmy: Linda Muir

    V polovině sedmnáctého století měli lidé blíž k přírodě, blíž k Bohu, blíž k iracionálním jevům, které dnes považujeme už jen za pohádky. Sedmičlenná rodina farmáře Williama (Ralph Ineson), která v té době žila v relativním bezpečí jedné z osad v Nové Anglii, se po vážném střetu se sousedy rozhodla kolonii opustit a vydala se dobývat americkou divočinu. Po krátkém putování se usadili v zemi nikoho, poblíž rozlehlého temného lesa, o němž by leckterá citlivá povaha řekla, že působí zlověstně. Neblahé tušení členů farmářovy rodiny umocňuje i řada obtížně vysvětlitelných událostí, které jejich nový život provázejí, zašlou úrodou počínaje a podivným chováním domácího zvířectva konče. Vrcholem série katastrof je pak zmizení farmářova nejmladšího syna přímo před očima nejstarší dcery Tomassin (Anya Taylor-Joy), která ho měla hlídat. V atmosféře všudypřítomné paranoie plynoucí z dalších podivných událostí dochází k postupnému rozkladu rodiny, Tomassin je jednomyslně označena za viníka všech neštěstí a obviněna z čarodějnictví, ačkoliv je to paradoxně právě ona, kdo si ještě zachovává alespoň zdání zdravého rozumu. A to, co se skrývá v temném lese a doposud bylo jen v roli pouhého pozorovatele, se rozhodne udeřit. (CinemArt)


     


    Formát                                   : Matroska
    Format version                           : Version 4
    Velikost souboru                         : 6,67 GiB
    Duration                                 : 1 h 32 min
    Celkový BitRate                          : 10,3 Mb/s
    Encoded date                             : UTC 2016-07-06 12:10:47
    Použitý software                         : mkvmerge v8.2.0 ('World of Adventure') 64bit
    Enkódoval                                : libebml v1.3.1 + libmatroska v1.4.2

    Video
    ID                                       : 1
    Formát                                   : AVC
    Formát/Info                              : Advanced Video Codec
    Format profile                           : High@L4.1
    Format settings                          : CABAC / 4 Ref Frames
    Format settings, CABAC                   : Ano
    Format settings, Reference frames        : 4 frames
    Codec ID                                 : V_MPEG4/ISO/AVC
    Duration                                 : 1 h 32 min
    Bit rate                                 : 8 646 kb/s
    Šířka                                    : 1 792pixely
    Výška                                    : 1 080pixely
    Poměr stran                              : 5:3
    Frame rate mode                          : Constant
    Frame rate                               : 23,976 FPS
    Color space                              : YUV
    Chroma subsampling                       : 4:2:0
    Bit depth                                : 8 bits
    Scan type                                : Progressive
    Bits/(Pixel*Frame)                       : 0.186
    Stream size                              : 5,57 GiB (84%)
    Enkódoval                                : x264 core 148 r2692 64f4e24
    Nastavení enkoderu                       : cabac=1 / ref=4 / deblock=1:0:0 / analyse=0x3:0x133 / me=umh / subme=7 / psy=1 / psy_rd=1.00:0.00 / mixed_ref=1 / me_range=16 / chroma_me=1 / trellis=1 / 8x8dct=1 / cqm=0 / deadzone=21,11 / fast_pskip=0 / chroma_qp_offset=-2 / threads=18 / lookahead_threads=3 / sliced_threads=0 / nr=0 / decimate=1 / interlaced=0 / bluray_compat=0 / constrained_intra=0 / bframes=3 / b_pyramid=2 / b_adapt=1 / b_bias=0 / direct=1 / weightb=1 / open_gop=0 / weightp=2 / keyint=250 / keyint_min=23 / scenecut=40 / intra_refresh=0 / rc_lookahead=40 / rc=2pass / mbtree=1 / bitrate=8646 / ratetol=1.0 / qcomp=0.60 / qpmin=0 / qpmax=69 / qpstep=4 / cplxblur=20.0 / qblur=0.5 / ip_ratio=1.40 / aq=1:1.00
    Jazyk                                    : English
    Default                                  : Ano
    Forced                                   : Ne

    Audio #1
    ID                                       : 2
    Formát                                   : AC-3
    Formát/Info                              : Audio Coding 3
    Commercial name                          : Dolby Digital
    Codec ID                                 : A_AC3
    Duration                                 : 1 h 32 min
    Bit rate mode                            : Constant
    Bit rate                                 : 192 kb/s
    Kanál(y)                                 : 2 kanály
    Channel layout                           : L R
    Sampling rate                            : 48,0 kHz
    Frame rate                               : 31,250 FPS (1536 SPF)
    Compression mode                         : Lossy
    Stream size                              : 127 MiB (2%)
    Titul                                    : AC3 2.0
    Jazyk                                    : Czech
    Service kind                             : Complete Main
    Default                                  : Ano
    Forced                                   : Ne

    Audio #2
    ID                                       : 3
    Formát                                   : DTS
    Formát/Info                              : Digital Theater Systems
    Codec ID                                 : A_DTS
    Duration                                 : 1 h 32 min
    Bit rate mode                            : Constant
    Bit rate                                 : 1 509 kb/s
    Kanál(y)                                 : 6 kanály
    Channel layout                           : C L R Ls Rs LFE
    Sampling rate                            : 48,0 kHz
    Frame rate                               : 93,750 FPS (512 SPF)
    Bit depth                                : 24 bits
    Compression mode                         : Lossy
    Stream size                              : 998 MiB (15%)
    Jazyk                                    : English
    Default                                  : Ne
    Forced                                   : Ne

    Text #1
    ID                                       : 4
    Formát                                   : UTF-8
    Codec ID                                 : S_TEXT/UTF8
    Codec ID/Info                            : UTF-8 Plain Text
    Duration                                 : 1 h 24 min
    Bit rate                                 : 0 b/s
    Frame rate                               : 0,001 FPS
    Count of elements                        : 6
    Stream size                              : 242 Bytes (0%)
    Titul                                    : Forced
    Jazyk                                    : Czech
    Default                                  : Ano
    Forced                                   : Ne

    Text #2
    ID                                       : 5
    Formát                                   : UTF-8
    Codec ID                                 : S_TEXT/UTF8
    Codec ID/Info                            : UTF-8 Plain Text
    Duration                                 : 1 h 27 min
    Bit rate                                 : 28 b/s
    Frame rate                               : 0,158 FPS
    Count of elements                        : 827
    Stream size                              : 18,0 KiB (0%)
    Jazyk                                    : Czech
    Default                                  : Ne
    Forced                                   : Ne

    Text #3
    ID                                       : 6
    Formát                                   : UTF-8
    Codec ID                                 : S_TEXT/UTF8
    Codec ID/Info                            : UTF-8 Plain Text
    Duration                                 : 1 h 27 min
    Bit rate                                 : 43 b/s
    Frame rate                               : 0,181 FPS
    Count of elements                        : 949
    Stream size                              : 27,6 KiB (0%)
    Jazyk                                    : English
    Default                                  : Ne
    Forced                                   : Ne

    Menu
    00:00:00.000                             : en:00:00:00.000
    00:04:44.159                             : en:00:04:44.159
    00:13:12.333                             : en:00:13:12.333
    00:18:51.672                             : en:00:18:51.672
    00:26:40.432                             : en:00:26:40.432
    00:29:47.869                             : en:00:29:47.869
    00:37:11.145                             : en:00:37:11.145
    00:42:09.068                             : en:00:42:09.068
    00:48:23.817                             : en:00:48:23.817
    00:53:23.867                             : en:00:53:23.867
    01:00:36.049                             : en:01:00:36.049
    01:04:13.558                             : en:01:04:13.558
    01:10:27.431                             : en:01:10:27.431
    01:13:55.431                             : en:01:13:55.431
    01:20:42.045                             : en:01:20:42.045
    01:25:14.901                             : en:01:25:14.901









    ONLINE











    gr3ys, Threadt, tripos, Gyzzmo,

    + Pridaj vlastnu verziu tohto torrentu +


    Upozornenie:
    Ziadny zo zobrazených súborov sa nenachádza na tomto serveri. Server slúzi len k síreniu vlastnorucne vytvorených aplikácií, videí, hudby ai. Autori stránok nenesú ziadnu zodpovednost za zverejnené odkazy, komentáre a obsah súborov. Vsetky komentáre, odkazy, súbory ktoré by svojou povahou mohli byt v rozpore zo zákonmi sem vkladáte na vlastnú zodpovednost. Autori stránok si vyhradzujú právo cenzúry odkazov, komentárov príp. súborov, ktoré by svojou povahou mohli byt v rozpore zo zákonmi a dobrými mravmi. Dodrzujte pravidlá!


    No comments...


    Back

    Na serveru se nenalézají zádne soubory. Za odkazy jsou výhradně zodpovědní uzivatelé a návstěvníci tohoto trackeru. Administrátor není zodpovědný za pridaný obsah ani za skody zpusobené uzivateli. Nesmíte pouzívat tuto webovou stránku pro distribuovaní nebo download zádného materiálu pokud nemáte povolení od príslusného vlastníka práv. Uzivatelé jsou zodpovědní za dodrzování těchto pravidel a podmínek. Owner má právo kdykoliv změnit pravidla tohoto trackeru.

    [ Script trval: 0.022 sec. ] - [ GZIP: enabled ]
    Je zhruba 15:49
    memcache

    TOPlist