Tvoj účet nieje VIP.
Preto sú tvoje funkcie a možnosti značne obmedzené.
Pre aktiváciu VIP klikni sem.

Cerny telefon / The Black Phone (2022) 1080p WEB-DL (EN) = CSFD 69% | SkTorrent.eu

Cz-SkTorrent open Tracker, na volné zdielanie súborov. Pridajte sa k nasej komunite a získajte pristup k tisícom torrentov.

  • vysoká rýchlost
  • úplne zdarma
  • prevazne Slovenska a Ceska scena
  • ste tu s nami uz 5 rokov - Dakujeme
  • Vitaj Guest (Login) Ako stahovat
    torrenty?
    Torrenty:
    v1 textová
    v2 obrázková
    v3 online filmy
    Ako sa stat
    Uploaderom
    Online
    Filmy
    Forum
    Pravidlá
    BitTorrent
    klient
    Meno: Heslo:
    Zaregistrovat
    Po zaregistrovaní mozte volne stahovat
    Zabudol som heslo

    Torrent's details
    Cerny telefon / The Black Phone (2022) 1080p WEB-DL (EN) = CSFD 69% Názov:Cerny telefon / The Black Phone (2022) 1080p WEB-DL (EN) = CSFD 69% Hodnocení:N/A Stiahnut
    Pozriet Online
    Kategória:Filmy bez titulků Velikost:5.4 GB BitTorrent klient
    Pridaný: Súbory:
    Skontrolován:2022-07-14 Peerov:4 (Seed: 4, Leech: 0)
    Zaner:Drama,Horor Uploader:Uvidis, az ked budes
    VIP
    Kúp nám Pivo 1,10€

    Kúp nám Pivo
    Podporte nas na Facebooku !
    Pridaj do zalozky
    Pridaj do zalozky




    https://www.csfd.cz/film/1021487-cerny-telefon/prehled/

    Jazyk EN
    titulky EN

    General
    Unique ID                                : 272029280884317543025487148945241653361 (0xCCA6EF0C3D89683AC1AF3F8A84F9C071)
    Complete name                            : The.Black.Phone.2022.1080p.WEB-DL.DDP5.1.Atmos.H.264.mkv
    Format                                   : Matroska
    Format version                           : Version 4
    File size                                : 5.35 GiB
    Duration                                 : 1 h 43 min
    Overall bit rate                         : 7 412 kb/s
    Encoded date                             : UTC 2022-07-14 04:15:05
    Writing application                      : mkvmerge v61.0.0 ('So') 64-bit
    Writing library                          : libebml v1.4.2 + libmatroska v1.6.4

    Video
    ID                                       : 1
    Format                                   : AVC
    Format/Info                              : Advanced Video Codec
    Format profile                           : High@L4
    Format settings                          : CABAC / 5 Ref Frames
    Format settings, CABAC                   : Yes
    Format settings, Reference frames        : 5 frames
    Codec ID                                 : V_MPEG4/ISO/AVC
    Duration                                 : 1 h 43 min
    Bit rate                                 : 6 642 kb/s
    Width                                    : 1 920 pixels
    Height                                   : 802 pixels
    Display aspect ratio                     : 2.40:1
    Frame rate mode                          : Constant
    Frame rate                               : 23.976 (24000/1001) FPS
    Color space                              : YUV
    Chroma subsampling                       : 4:2:0
    Bit depth                                : 8 bits
    Scan type                                : Progressive
    Bits/(Pixel*Frame)                       : 0.180
    Stream size                              : 4.80 GiB (90%)
    Language                                 : English
    Default                                  : Yes
    Forced                                   : No
    Color range                              : Limited
    Color primaries                          : BT.709
    Transfer characteristics                 : BT.709
    Matrix coefficients                      : BT.709

    Audio
    ID                                       : 2
    Format                                   : E-AC-3 JOC
    Format/Info                              : Enhanced AC-3 with Joint Object Coding
    Commercial name                          : Dolby Digital Plus with Dolby Atmos
    Codec ID                                 : A_EAC3
    Duration                                 : 1 h 43 min
    Bit rate mode                            : Constant
    Bit rate                                 : 768 kb/s
    Channel(s)                               : 6 channels
    Channel layout                           : L R C LFE Ls Rs
    Sampling rate                            : 48.0 kHz
    Frame rate                               : 31.250 FPS (1536 SPF)
    Compression mode                         : Lossy
    Stream size                              : 568 MiB (10%)
    Language                                 : English
    Service kind                             : Complete Main
    Default                                  : Yes
    Forced                                   : No
    Complexity index                         : 16
    Number of dynamic objects                : 15
    Bed channel count                        : 1 channel
    Bed channel configuration                : LFE

    Text #1
    ID                                       : 3
    Format                                   : UTF-8
    Codec ID                                 : S_TEXT/UTF8
    Codec ID/Info                            : UTF-8 Plain Text
    Duration                                 : 1 h 43 min
    Bit rate                                 : 46 b/s
    Frame rate                               : 0.232 FPS
    Count of elements                        : 1439
    Stream size                              : 35.5 KiB (0%)
    Title                                    : SDH
    Language                                 : English
    Default                                  : No
    Forced                                   : No

    Text #2
    ID                                       : 4
    Format                                   : UTF-8
    Codec ID                                 : S_TEXT/UTF8
    Codec ID/Info                            : UTF-8 Plain Text
    Duration                                 : 1 h 42 min
    Bit rate                                 : 38 b/s
    Frame rate                               : 0.188 FPS
    Count of elements                        : 1157
    Stream size                              : 28.9 KiB (0%)
    Language                                 : English
    Default                                  : No
    Forced                                   : No

    Text #3
    ID                                       : 5
    Format                                   : UTF-8
    Codec ID                                 : S_TEXT/UTF8
    Codec ID/Info                            : UTF-8 Plain Text
    Duration                                 : 1 h 42 min
    Bit rate                                 : 33 b/s
    Frame rate                               : 0.148 FPS
    Count of elements                        : 914
    Stream size                              : 25.1 KiB (0%)
    Title                                    : Latin American
    Language                                 : Spanish
    Default                                  : No
    Forced                                   : No

    Text #4
    ID                                       : 6
    Format                                   : UTF-8
    Codec ID                                 : S_TEXT/UTF8
    Codec ID/Info                            : UTF-8 Plain Text
    Duration                                 : 1 h 42 min
    Bit rate                                 : 36 b/s
    Frame rate                               : 0.150 FPS
    Count of elements                        : 922
    Stream size                              : 27.3 KiB (0%)
    Title                                    : Canadian
    Language                                 : French
    Default                                  : No
    Forced                                   : No


     



    ONLINE

    CZ titulky









    Lucyfyre666, vangelis, Nixon88, randlwood, JosefZeman, Jablonka,

    + Pridaj vlastnu verziu tohto torrentu +


    Upozornenie:
    Ziadny zo zobrazených súborov sa nenachádza na tomto serveri. Server slúzi len k síreniu vlastnorucne vytvorených aplikácií, videí, hudby ai. Autori stránok nenesú ziadnu zodpovednost za zverejnené odkazy, komentáre a obsah súborov. Vsetky komentáre, odkazy, súbory ktoré by svojou povahou mohli byt v rozpore zo zákonmi sem vkladáte na vlastnú zodpovednost. Autori stránok si vyhradzujú právo cenzúry odkazov, komentárov príp. súborov, ktoré by svojou povahou mohli byt v rozpore zo zákonmi a dobrými mravmi. Dodrzujte pravidlá!





    2
    heker510
    Ratio 37.22

    Member+

    14/07/2022 12.22.12
    title se delaji https://www.titulky.com/?Stat=5&item=21684  


    --------------
    >> 14/07/2022 12.30.30
    vangelis: potěšils


    Back

    Na serveru se nenalézají zádne soubory. Za odkazy jsou výhradně zodpovědní uzivatelé a návstěvníci tohoto trackeru. Administrátor není zodpovědný za pridaný obsah ani za skody zpusobené uzivateli. Rozsirovat stránku nebo její obsah bez souhlasu ownera je zakázano. Nesmíte pouzívat tuto webovou stránku pro distribuovaní nebo download zádného materiálu pokud nemáte povolení od príslusného vlastníka práv. Uzivatelé jsou zodpovědní za dodrzování těchto pravidel a podmínek. Owner má právo kdykoliv změnit pravidla tohoto trackeru.

    [ Script trval: 0.108 sec. ] - [ GZIP: enabled ]
    Je zhruba 20:32
    memcache

    TOPlist