Tvoj účet nieje VIP.
Preto sú tvoje funkcie a možnosti značne obmedzené.
Pre aktiváciu VIP klikni sem.

Chainsaw Man S01E5 Cz titulky 1080p = CSFD 91% | SkTorrent.eu

Cz-SkTorrent open Tracker, na volné zdielanie súborov. Pridajte sa k nasej komunite a získajte pristup k tisícom torrentov.

  • vysoká rýchlost
  • úplne zdarma
  • prevazne Slovenska a Ceska scena
  • ste tu s nami uz 5 rokov - Dakujeme
  • Vitaj Guest (Login) Ako stahovat
    torrenty?
    Torrenty:
    v1 textová
    v2 obrázková
    Ako sa stat
    Uploaderom
    Online
    Filmy
    Forum
    Pravidlá
    BitTorrent
    klient
    Meno: Heslo:
    Zaregistrovat
    Po zaregistrovaní mozte volne stahovat
    Zabudol som heslo

    Chainsaw Man S01E5 Cz titulky 1080p  = CSFD 91% Názov:Chainsaw Man S01E5 Cz titulky 1080p = CSFD 91% Hodnocení: Stiahnut
    Pozriet Online
    Kategória:Seriál Velikost:417.8 MB BitTorrent klient
    Pridaný: Súbory:
    Skontrolován:2022-11-11 Peerov:17 (Seed: 17, Leech: 0)
    Zaner:Akcni,Animovany,Dobrodruzny Uploader:Uvidis, az ked budes
    VIP
    Kúp nám Pivo 1,10€

    Kúp nám Pivo
    Pridaj do zalozky
    Pridaj do zalozky




    žaner: Animovaný / Akčný / Dobrodružný
    Rok vydania: 2022
    Minutáž: 4 h 49 min (Minutáž: 24–25 min)
    https://www.csfd.cz/film/1093193-chainsaw-man/videa/
    Réžia: Rjú Nakajama
    Predloha: Tacuki Fudžimoto (komiks)
    Scenár: Hiroši Seko
    Kamera: Teppei Itó
    Hudba: Kensuke Ušio
    Hrajú: Toja Kikunosuke, Tomori Kusunoki, Šógo Sakata, Ai Fairouz, Šiori Izawa, Marija Ise, Karin Takahaši, Taku Jaširo, Kendžiró Cuda, Maaja Učida (viac)
    (ďalšie profesie)

    Obsah:
    Japonsko. Lidstvo žije v neustálém ohrožení ďábly/démony, kteří ztělesňují lidský strach. Čím větší je strach, tím silnější je ďábel. Proti tomuto všeobecnému ohrožení bojují „lovci ďáblů“ – jak ti posvěceni vládou, tak i další na volné noze. Denji je teenager, který nesní po ničem jiném, než po normálním životě, ve kterém bude mít dostatek jídla, hezký domov a nakonec snad i přítelkyni. Jeho největšími tužbami je jednou jíst i něco jiného, než suchý chleba, a dívčí objetí. Místo toho musí žít na úplném okraji společnosti v rozpadající se chajdě a splácet obrovský dluh po otci, kvůli němuž mu Yakuza hrozí smrtí. Když jednou náhodou narazí na malého, překvapivě roztomilého a zraněného ďábla Pochitu a pomůže mu k zotavení tím, že mu nabídne svou krev, začnou spolu pro zmíněné gangstery lovit další ďábly, kteří sužují japonský venkov. Yakuza má však s ulovenými monstry vlastní plány a Denji i Pochita se brzy stanou postradatelnými.





    General
    Unique ID                                : 69472410696181621572519365483183498109 (0x3443E64CA283068A7AC23712E050637D)
    Complete name                            : C:\Users\Renátka\Downloads\[EMBER] Chainsaw Man - 03 CZ.mkv
    Format                                   : Matroska
    Format version                           : Version 4
    File size                                : 379 MiB
    Duration                                 : 23 min 55 s
    Overall bit rate                         : 2 218 kb/s
    Movie name                               : S01E03- Meowy's Whereabouts (CZ)
    Encoded date                             : UTC 2022-10-26 13:32:17
    Writing application                      : mkvmerge v71.1.0 ('Fortitude') 64-bit
    Writing library                          : libebml v1.4.4 + libmatroska v1.7.1
    Cover                                    : Yes
    Attachments                              : cover.jpeg / Roboto-Medium.ttf / Roboto-MediumItalic.ttf / arial.ttf / arialbd.ttf / comic.ttf / comicbd.ttf / times.ttf / timesbd.ttf / trebuc.ttf / trebucbd.ttf / verdana.ttf / verdanab.ttf

    Video
    ID                                       : 1
    Format                                   : HEVC
    Format/Info                              : High Efficiency Video Coding
    Format profile                           : Main 10@L4@High
    Codec ID                                 : V_MPEGH/ISO/HEVC
    Duration                                 : 23 min 54 s
    Bit rate                                 : 2 055 kb/s
    Width                                    : 1 920 pixels
    Height                                   : 1 080 pixels
    Display aspect ratio                     : 16:9
    Frame rate mode                          : Constant
    Frame rate                               : 23.976 (24000/1001) FPS
    Color space                              : YUV
    Chroma subsampling                       : 4:2:0
    Bit depth                                : 10 bits
    Bits/(Pixel*Frame)                       : 0.041
    Stream size                              : 352 MiB (93%)
    Writing library                          : x265 2.4+14-bc0e9bd7c08f5ddc:[Windows][GCC 6.3.0][64 bit] 10bit: KG7x [x265.ru]
    Encoding settings                        : cpuid=1173503 / frame-threads=3 / numa-pools=12 / wpp / no-pmode / no-pme / no-psnr / no-ssim / log-level=2 / input-csp=1 / input-res=1920x1080 / interlace=0 / total-frames=0 / level-idc=40 / high-tier=1 / uhd-bd=0 / ref=4 / no-allow-non-conformance / no-repeat-headers / annexb / no-aud / no-hrd / info / hash=0 / no-temporal-layers / open-gop / min-keyint=23 / keyint=250 / bframes=8 / b-adapt=2 / b-pyramid / bframe-bias=0 / rc-lookahead=60 / lookahead-slices=4 / scenecut=40 / no-intra-refresh / ctu=64 / min-cu-size=8 / rect / no-amp / max-tu-size=32 / tu-inter-depth=2 / tu-intra-depth=2 / limit-tu=4 / rdoq-level=2 / dynamic-rd=0.00 / no-ssim-rd / signhide / no-tskip / nr-intra=0 / nr-inter=0 / no-constrained-intra / no-strong-intra-smoothing / max-merge=3 / limit-refs=3 / limit-modes / me=3 / subme=3 / merange=57 / temporal-mvp / weightp / no-weightb / no-analyze-src-pics / deblock=0:-1 / no-sao / no-sao-non-deblock / rd=4 / no-early-skip / rskip / no-fast-intra / no-tskip-fast / no-cu-lossless / no-b-intra / rdpenalty=0 / psy-rd=1.20 / psy-rdoq=2.00 / no-rd-refine / analysis-mode=0 / no-lossless / cbqpoffs=0 / crqpoffs=0 / rc=crf / crf=21.4 / qcomp=0.60 / qpstep=4 / stats-write=0 / stats-read=0 / vbv-maxrate=30000 / vbv-bufsize=30000 / vbv-init=0.9 / crf-max=0.0 / crf-min=0.0 / ipratio=1.40 / pbratio=1.30 / aq-mode=3 / aq-strength=0.90 / cutree / zone-count=0 / no-strict-cbr / qg-size=32 / no-rc-grain / qpmax=69 / qpmin=0 / sar=0 / overscan=0 / videoformat=5 / range=0 / colorprim=1 / transfer=1 / colormatrix=1 / chromaloc=0 / display-window=0 / max-cll=0,0 / min-luma=0 / max-luma=1023 / log2-max-poc-lsb=8 / vui-timing-info / vui-hrd-info / slices=1 / opt-qp-pps / opt-ref-list-length-pps / no-multi-pass-opt-rps / scenecut-bias=0.05 / no-opt-cu-delta-qp / no-aq-motion / no-hdr / no-hdr-opt / no-dhdr10-opt / refine-level=5 / no-limit-sao / ctu-info=0
    Default                                  : Yes
    Forced                                   : No
    Color range                              : Limited
    Color primaries                          : BT.709
    Transfer characteristics                 : BT.709
    Matrix coefficients                      : BT.709

    Audio
    ID                                       : 2
    Format                                   : AAC LC
    Format/Info                              : Advanced Audio Codec Low Complexity
    Codec ID                                 : A_AAC-2
    Duration                                 : 23 min 55 s
    Bit rate                                 : 128 kb/s
    Channel(s)                               : 2 channels
    Channel layout                           : L R
    Sampling rate                            : 44.1 kHz
    Frame rate                               : 43.066 FPS (1024 SPF)
    Compression mode                         : Lossy
    Stream size                              : 21.9 MiB (6%)
    Language                                 : Japanese
    Default                                  : Yes
    Forced                                   : No

    Text
    ID                                       : 3
    Format                                   : ASS
    Codec ID                                 : S_TEXT/ASS
    Codec ID/Info                            : Advanced Sub Station Alpha
    Duration                                 : 21 min 16 s
    Bit rate                                 : 84 b/s
    Count of elements                        : 208
    Compression mode                         : Lossless
    Stream size                              : 13.1 KiB (0%)
    Title                                    : [Kamui-Subs]
    Language                                 : Czech
    Default                                  : Yes
    Forced                                   : No

    Menu
    00:00:00.000                             : rologue
    00:04:35.985                             : :OP
    00:06:05.907                             : :Main EP
    00:22:23.970                             : :ED







    huntersk035, Langos1236, pohee, sabmiller,

    + Pridaj vlastnu verziu tohto torrentu +


    Upozornenie:
    Ziadny zo zobrazených súborov sa nenachádza na tomto serveri. Server slúzi len k síreniu vlastnorucne vytvorených aplikácií, videí, hudby ai. Autori stránok nenesú ziadnu zodpovednost za zverejnené odkazy, komentáre a obsah súborov. Vsetky komentáre, odkazy, súbory ktoré by svojou povahou mohli byt v rozpore zo zákonmi sem vkladáte na vlastnú zodpovednost. Autori stránok si vyhradzujú právo cenzúry odkazov, komentárov príp. súborov, ktoré by svojou povahou mohli byt v rozpore zo zákonmi a dobrými mravmi. Dodrzujte pravidlá!


    No comments...


    Back

    Na serveru se nenalézají zádne soubory. Za odkazy jsou výhradně zodpovědní uzivatelé a návstěvníci tohoto trackeru. Administrátor není zodpovědný za pridaný obsah ani za skody zpusobené uzivateli. Nesmíte pouzívat tuto webovou stránku pro distribuovaní nebo download zádného materiálu pokud nemáte povolení od príslusného vlastníka práv. Uzivatelé jsou zodpovědní za dodrzování těchto pravidel a podmínek. Owner má právo kdykoliv změnit pravidla tohoto trackeru.

    [ Script trval: 0.022 sec. ] - [ GZIP: enabled ]
    Je zhruba 04:32
    memcache

    TOPlist