Tvoj účet nieje VIP.
Preto sú tvoje funkcie a možnosti značne obmedzené.
Pre aktiváciu VIP klikni sem.

Chip & Dale: Co se deje ve vetvich (2005)(CZ) = CSFD 83% | SkTorrent.eu

Cz-SkTorrent open Tracker, na volné zdieľanie súborov. Pridajte sa k našej komunite a získajte prístup k tisícom torrentov.

  • vysoká rýchlosť
  • úplne zdarma
  • prevažne Slovenská a Česká scéna
  • ste tu s nami už 10 rokov - Ďakujeme
  • Vitaj Guest (Login) Ako stahovat
    torrenty?
    Torrenty:
    v1 textová
    v2 obrázková
    Ako sa stat
    Uploaderom
    Online
    Filmy
    Forum
    Pravidlá
    SkTSocial
    BitTorrent
    klient
    Meno: Heslo:
    Zaregistrovat
    Po zaregistrovaní mozte volne stahovat
    Zabudol som heslo

    Chip & Dale: Co se deje ve vetvich (2005)(CZ) = CSFD 83% Názov:Chip & Dale: Co se deje ve vetvich (2005)(CZ) = CSFD 83% Hodnocení: Stiahnut
    Pozriet Online
    Kategória:Filmy Kreslené - Velikost:699.1 MB BitTorrent klient
    Pridaný: Súbory:
    Skontrolován:2013-12-08 Peerov:1 (Seed: 1, Leech: 0)
    Zaner:Animovany,Pohadka,Rodinny Uploader:Uvidis, az ked budes
    VIP
    Kúp nám Pivo 1,10€

    Kúp nám Pivo

    Pridaj do zalozky
    Pridaj do zalozky




    Jazyk: česky/anglicky
    Titulky: Ne
    Rok vydání2005
    Délka: 52 minut
    Žánr Animovaný / Pohádka / Rodinný
    Odkaz: http://www.csfd.cz/film/276952-chip-dale-co-se-deje-ve-vetvich/

    Obrázek:

    MediaInfo:
    General
    Complete name                            : Z:\3. Cz Pohadky a kreslene 102 GB\4 Kreslené  53 GB\~~Chip & Dale 2CD's 1.4 GB\Chip and Dale 2 Co se deje ve vetvich DVD Thyronx.avi
    Format                                   : AVI
    Format/Info                              : Audio Video Interleave
    File size                                : 699 MiB
    Duration                                 : 53mn 50s
    Overall bit rate                         : 1 816 Kbps
    Writing application                      : Nandub v1.0rc2
    Writing library                          : Nandub build 1852/release

    Video
    ID                                       : 0
    Format                                   : MPEG-4 Visual
    Format profile                           : Advanced Simple@L5
    Format settings, BVOP                    : 2
    Format settings, QPel                    : Yes
    Format settings, GMC                     : No warppoints
    Format settings, Matrix                  : Default (MPEG)
    Muxing mode                              : Packed bitstream
    Codec ID                                 : XVID
    Codec ID/Hint                            : XviD
    Duration                                 : 53mn 50s
    Bit rate                                 : 1 417 Kbps
    Width                                    : 640 pixels
    Height                                   : 480 pixels
    Display aspect ratio                     : 4:3
    Frame rate                               : 25.000 fps
    Color space                              : YUV
    Chroma subsampling                       : 4:2:0
    Bit depth                                : 8 bits
    Scan type                                : Progressive
    Compression mode                         : Lossy
    Bits/(Pixel*Frame)                       : 0.185
    Stream size                              : 546 MiB (78%)
    Writing library                          : XviD 1.1.0 Beta1 (UTC 2005-01-16)

    Audio #1
    ID                                       : 1
    Format                                   : AC-3
    Format/Info                              : Audio Coding 3
    Mode extension                           : CM (complete main)
    Format settings, Endianness              : Big
    Codec ID                                 : 2000
    Duration                                 : 53mn 50s
    Bit rate mode                            : Constant
    Bit rate                                 : 192 Kbps
    Channel(s)                               : 2 channels
    Channel positions                        : Front: L R
    Sampling rate                            : 48.0 KHz
    Bit depth                                : 16 bits
    Compression mode                         : Lossy
    Stream size                              : 73.9 MiB (11%)
    Alignment                                : Split accross interleaves
    Interleave, duration                     : 40 ms (1.00 video frame)
    Interleave, preload duration             : 500 ms

    Audio #2
    ID                                       : 2
    Format                                   : AC-3
    Format/Info                              : Audio Coding 3
    Mode extension                           : CM (complete main)
    Format settings, Endianness              : Big
    Codec ID                                 : 2000
    Duration                                 : 53mn 50s
    Bit rate mode                            : Constant
    Bit rate                                 : 192 Kbps
    Channel(s)                               : 2 channels
    Channel positions                        : Front: L R
    Sampling rate                            : 48.0 KHz
    Bit depth                                : 16 bits
    Compression mode                         : Lossy
    Stream size                              : 73.9 MiB (11%)
    Alignment                                : Split accross interleaves
    Interleave, duration                     : 40 ms (1.00 video frame)
    Interleave, preload duration             : 500 ms


    Popis
    V druhej časti kolekcie o výmyselných veveričkách Chipovi a Daleovi je pripravených osem príbehov. V každom majú veselé zvieratká nejaké problémy so susedom Donaldom, ktoré spolu vždy vo dvojici a k svojej spokojnosti vyriešia. Ukážka klasickej animácie poteší oko a pohladí dušu veľkých i malých milovníkov veselých príbehov.







    Ekirk, zmasabujon, fanfulo, zac22, mauhhh,

    + Pridaj vlastnu verziu tohto torrentu +


    Upozornenie:
    Ziadny zo zobrazených súborov sa nenachádza na tomto serveri. Server slúzi len k síreniu vlastnorucne vytvorených aplikácií, videí, hudby ai. Autori stránok nenesú ziadnu zodpovednost za zverejnené odkazy, komentáre a obsah súborov. Vsetky komentáre, odkazy, súbory ktoré by svojou povahou mohli byt v rozpore zo zákonmi sem vkladáte na vlastnú zodpovednost. Autori stránok si vyhradzujú právo cenzúry odkazov, komentárov príp. súborov, ktoré by svojou povahou mohli byt v rozpore zo zákonmi a dobrými mravmi. Dodrzujte pravidlá!





    -6
    Daliborovo
    Ratio 0.05

    Clen

    18/12/2013 17.27.17
    Díky, vše ok.,


    Back

    Na serveru se nenalézají zádne soubory. Za odkazy jsou výhradně zodpovědní uzivatelé a návstěvníci tohoto trackeru. Administrátor není zodpovědný za pridaný obsah ani za skody zpusobené uzivateli. Nesmíte pouzívat tuto webovou stránku pro distribuovaní nebo download zádného materiálu pokud nemáte povolení od príslusného vlastníka práv. Uzivatelé jsou zodpovědní za dodrzování těchto pravidel a podmínek. Owner má právo kdykoliv změnit pravidla tohoto trackeru.

    [ Script trval: 0.081 sec. ] - [ GZIP: enabled ]
    Je zhruba 11:24
    memcache

    TOPlist