Tvoj účet nieje VIP.
Preto sú tvoje funkcie a možnosti značne obmedzené.
Pre aktiváciu VIP klikni sem.

Cinderella an Axel Braun parody | SkTorrent.eu

Cz-SkTorrent open Tracker, na volné zdielanie súborov. Pridajte sa k nasej komunite a získajte pristup k tisícom torrentov.

  • vysoká rýchlost
  • úplne zdarma
  • prevazne Slovenska a Ceska scena
  • ste tu s nami uz 5 rokov - Dakujeme
  • Vitaj Guest (Login) Ako stahovat
    torrenty?
    Torrenty:
    v1 textová
    v2 obrázková
    v3 online filmy
    Ako sa stat
    Uploaderom
    Online
    Filmy
    Forum
    Pravidlá
    BitTorrent
    klient
    pruzinky
    Meno: Heslo:
    Zaregistrovat
    Po zaregistrovaní mozte volne stahovat
    Zabudol som heslo

    Torrent's details
    Cinderella an Axel Braun parody Názov:Cinderella an Axel Braun parody Hodnocení: Stiahnut
    Pozriet Online
    Kategória:xXx Velikost:1.3 GB BitTorrent klient
    Pridaný: Súbory:
    Skontrolován:2020-03-24 Peerov:6 (Seed: 5, Leech: 1)
    Zaner: Uploader:Uvidis, az ked budes
    VIP
    Kúp nám Pivo 1,10€

    Kúp nám Pivo
    Podporte nas na Facebooku !
    Pridaj do zalozky
    Pridaj do zalozky




    NÁZEV:
    Cinderella an Axel Braun parody

    DÉLKA:
    1h 56min

    HRAJÍ:
    Samantha Saint
    Carter Cruise
    Julia Ann
    Veronica Avluv
    Penny Pax
    Evan Stone
    Seth Gamble
    Will Powers
    Tyler Knight

    POPIS:
    Desire. Defy. Escape.
    From legendary director Axel Braun comes the third chapter in the highly successful Wicked Fairy Tales series, a sexy take on the classic Charles Perrault story featuring Samantha Saint as the persecuted heroine, Veronica Avluv as the Evil Stepmother, and porn superstar Julia Ann as the Fairy Godmother. Darkly sensual, beautifully shot, and sexually intense, \"Cinderella XXX: An Axel Braun Parody\" will make all your fantasies come to life. BIBBIDI, BOBBIDI, BOOBS!



    MEDIA INFO:
    General
    Complete name: Cinderella XXX An Axel Braun Parody 2014 WEB-DL.mp4
    Format: MPEG-4
    Format profile: Base Media
    Codec ID: isom (isom)
    File size: 1.34 GiB
    Duration: 1 h 56 min
    Overall bit rate mode: Variable
    Overall bit rate: 1 646 kb/s
    Movie name: Cinderella XXX An Axel Braun Parody 2014 WEB-DL
    Encoded date: UTC 2014-09-28 21:49:12
    Tagged date: UTC 2014-09-28 21:49:12

    Video
    ID: 1
    Format: AVC
    Format/Info: Advanced Video Codec
    Format profile: Baseline@L3
    Format settings: 1 Ref Frames
    Format settings, CABAC: No
    Format settings, ReFrames: 1 frame
    Codec ID: avc1
    Codec ID/Info: Advanced Video Coding
    Duration: 1 h 56 min
    Source duration: 1 h 56 min
    Bit rate: 1 514 kb/s
    Nominal bit rate: 1 650 kb/s
    Maximum bit rate: 4 235 kb/s
    Width: 720 pixels
    Height: 404 pixels
    Display aspect ratio: 16:9
    Original display aspect ratio: 16:9
    Frame rate mode: Variable
    Frame rate: 25.995 FPS
    Minimum frame rate: 14.985 FPS
    Maximum frame rate: 29.970 FPS
    Color space: YUV
    Chroma subsampling: 4:2:0
    Bit depth: 8 bits
    Scan type: Progressive
    Bits/(Pixel*Frame): 0.200
    Stream size: 1.24 GiB (92%)
    Source stream size: 1.24 GiB (92%)
    Writing library: x264 core 142 r2479 dd79a61
    Encoding settings: cabac=0 / ref=1 / deblock=1:0:0 / analyse=0x1:0x111 / me=hex / subme=2 / psy=1 / psy_rd=1.00:0.00 / mixed_ref=0 / me_range=16 / chroma_me=1 / trellis=0 / 8x8dct=0 / cqm=0 / deadzone=21,11 / fast_pskip=1 / chroma_qp_offset=0 / threads=24 / lookahead_threads=3 / sliced_threads=0 / nr=0 / decimate=1 / interlaced=0 / bluray_compat=0 / constrained_intra=0 / bframes=0 / weightp=0 / keyint=240 / keyint_min=24 / scenecut=40 / intra_refresh=0 / rc_lookahead=10 / rc=abr / mbtree=1 / bitrate=1650 / ratetol=1.0 / qcomp=0.60 / qpmin=0 / qpmax=69 / qpstep=4 / vbv_maxrate=10000 / vbv_bufsize=10000 / nal_hrd=none / filler=0 / ip_ratio=1.40 / aq=1:1.00
    Tagged date: UTC 2014-09-28 21:52:00
    Color range: Limited
    Color primaries: BT.601 NTSC
    Transfer characteristics: BT.709
    Matrix coefficients: BT.601
    Codec configuration box: avcC

    Audio
    ID: 2
    Format: AAC LC
    Format/Info: Advanced Audio Codec Low Complexity
    Codec ID: mp4a-40-2
    Duration: 1 h 56 min
    Bit rate mode: Variable
    Bit rate: 128 kb/s
    Maximum bit rate: 141 kb/s
    Channel(s): 2 channels
    Channel layout: L R
    Sampling rate: 48.0 kHz
    Frame rate: 46.875 FPS (1024 SPF)
    Compression mode: Lossy
    Stream size: 107 MiB (8%)
    Title: Stereo / Stereou
    Default: Yes
    Alternate group : 1
    Tagged date: UTC 2014-09-28 21:52:00





    ...



    COVER:











    segamann,

    + Pridaj vlastnu verziu tohto torrentu +


    Upozornenie:
    Ziadny zo zobrazených súborov sa nenachádza na tomto serveri. Server slúzi len k síreniu vlastnorucne vytvorených aplikácií, videí, hudby ai. Autori stránok nenesú ziadnu zodpovednost za zverejnené odkazy, komentáre a obsah súborov. Vsetky komentáre, odkazy, súbory ktoré by svojou povahou mohli byt v rozpore zo zákonmi sem vkladáte na vlastnú zodpovednost. Autori stránok si vyhradzujú právo cenzúry odkazov, komentárov príp. súborov, ktoré by svojou povahou mohli byt v rozpore zo zákonmi a dobrými mravmi. Dodrzujte pravidlá!


    No comments...


    Back

    Na serveru se nenalézají zádne soubory. Za odkazy jsou výhradně zodpovědní uzivatelé a návstěvníci tohoto trackeru. Administrátor není zodpovědný za pridaný obsah ani za skody zpusobené uzivateli. Rozsirovat stránku nebo její obsah bez souhlasu ownera je zakázano. Nesmíte pouzívat tuto webovou stránku pro distribuovaní nebo download zádného materiálu pokud nemáte povolení od príslusného vlastníka práv. Uzivatelé jsou zodpovědní za dodrzování těchto pravidel a podmínek. Owner má právo kdykoliv změnit pravidla tohoto trackeru.

    [ Script trval: 0.019 sec. ] - [ GZIP: enabled ]
    BtiTracker (1.4.8) by Btiteam
    Je zhruba 21:29

    TOPlist