Tvoj účet nieje VIP.
Preto sú tvoje funkcie a možnosti značne obmedzené.
Pre aktiváciu VIP klikni sem.

Classic Anime Disney Pohadky No2 (1930-2001)(CZ) = CSFD 78% | SkTorrent.eu

Cz-SkTorrent open Tracker, na volné zdielanie súborov. Pridajte sa k nasej komunite a získajte pristup k tisícom torrentov.

  • vysoká rýchlost
  • úplne zdarma
  • prevazne Slovenska a Ceska scena
  • ste tu s nami uz 5 rokov - Dakujeme
  • Vitaj Guest (Login) Ako stahovat
    torrenty?
    Torrenty:
    v1 textová
    v2 obrázková
    v3 online filmy
    Ako sa stat
    Uploaderom
    Online
    Filmy
    Forum
    Pravidlá
    BitTorrent
    klient
    Meno: Heslo:
    Zaregistrovat
    Po zaregistrovaní mozte volne stahovat
    Zabudol som heslo

    Torrent's details
    Classic Anime Disney Pohadky No2 (1930-2001)(CZ)  = CSFD 78% Názov:Classic Anime Disney Pohadky No2 (1930-2001)(CZ) = CSFD 78% Hodnocení: Stiahnut
    Pozriet Online
    Kategória:Filmy Kreslené Velikost:5.2 GB BitTorrent klient
    Pridaný: Súbory:
    Skontrolován:2021-06-09 Peerov:25 (Seed: 22, Leech: 3)
    Zaner:Animovany,Dobrodruzny,Rodinny Uploader:Uvidis, az ked budes
    VIP
    Kúp nám Pivo 1,10€

    Kúp nám Pivo
    Podporte nas na Facebooku !
    Pridaj do zalozky
    Pridaj do zalozky








    Classic Anime Disney Pohadky No:2 (1930-2001)
    Walt Disney - Celková serie cca 185 ks v CZ dabingu (1930-2001)DVDrip/HDTVrip/BRrip/Webrip/

                   






    Liska a pes (1981)(CZ) PHDTeam.avi
    Osklive kacatko (1939) (CZ) PHDTeam.avi
    Dumbo (1941)(CZ) PHDTeam..avi
    Není král jako král (2000 ) (CZ) PHDTeam.avi
    Herkules (1997 ) (CZ) PHDTeam.avi
    Kráska a Zvíře (1991)(CZ) PHDTeam.avi




    https://www.csfd.cz/film/15771-liska-a-pes/prehled/
    https://www.csfd.cz/film/218996-osklive-kacatko/prehled/
    https://www.csfd.cz/film/34122-dumbo/prehled/
    https://www.csfd.cz/film/19643-neni-kral-jako-kral/prehled/
    https://www.csfd.cz/film/18250-herkules/prehled/
    https://www.csfd.cz/film/18252-kraska-a-zvire/prehled/



    Liška a pes
    Animovaný / Dobrodružný / Rodinný
    USA, 1981, 83 min
    Režie: Richard Rich, Ted Berman
    Scénář: Earl Kress
    Hudba: Buddy Baker
    Hrají: Mickey Rooney, Kurt Russell, Pearl Bailey, Jack Albertson, Sandy Duncan, John Fiedler, John McIntire, Keith Coogan, Corey Feldman, Jeanette Nolan,
    Ošklivé kačátko
    Animovaný / Komedie / Rodinný / Krátkometrážní
    USA, 1939, 9 min
    Režie: Jack Cutting
    Předloha: Hans Christian Andersen (kniha)
    Dumbo
    Animovaný / Muzikál / Rodinný
    USA, 1941, 64 min
    Režie: Ben Sharpsteen
    Hudba: Oliver Wallace, Frank Churchill
    Hrají: Edward Brophy, Sterling Holloway, Herman Bing, Verna Felton
    Není král jako král
    Animovaný / Komedie / Dobrodružný / Rodinný
    USA, 2000, 78 min
    Režie: Mark Dindal
    Scénář: David Reynolds
    Hudba: John Debney
    Hrají: David Spade, John Goodman, Eartha Kitt, Patrick Warburton, Wendie Malick, Stephen J. Anderson, Bob Bergen, Rodger Bumpass, Tom Jones,
    Herkules
    Animovaný / Dobrodružný / Rodinný / Komedie / Fantasy
    USA, 1997, 89 min
    Režie: Ron Clements, John Musker
    Scénář: Don McEnery, Bob Shaw, Irene Mecchi
    Hudba: Alan Menken
    Hrají: Tate Donovan, Danny DeVito, James Woods, Bobcat Goldthwait, Matt Frewer, Rip Torn, Samantha Eggar, Barbara Barrie, Hal Holbrook,
    Kráska a zvíře
    USA Beauty and the Beast (více)
    Animovaný / Rodinný / Muzikál / Romantický
    USA, 1991, 84 min (Special Edition: 90 min)
    Režie: Gary Trousdale, Kirk Wise
    Scénář: Linda Woolverton
    Hudba: Alan Menken
    Hrají: Paige O'Hara, Robby Benson, Jerry Orbach, David Ogden Stiers, Angela Lansbury, Bradley Pierce, Frank Welker, Bill Farmer, Rex Everhart













    Formát                                   : AVI
    Formát/Info                              : Audio Video Interleave
    Velikost souboru                         : 964 MiB
    Duration                                 : 1 h 1 min
    Overall bit rate mode                    : Variable
    Celkový BitRate                          : 2 204 kb/s
    Použitý software                         : MEncoder Sherpya-SVN-r32492-4.2.5
    Enkódoval                                : MPlayer

    Video
    ID                                       : 0
    Formát                                   : MPEG-4 Visual
    Format profile                           : Simple@L3
    Format settings, BVOP                    : Ne
    Format settings, QPel                    : Ne
    Format settings, GMC                     : No warppoints
    Format settings, Matrix                  : Default (H.263)
    Codec ID                                 : XVID
    Codec ID/Hint                            : XviD
    Duration                                 : 1 h 1 min
    Bit rate                                 : 1 999 kb/s
    Šířka                                    : 1 280pixely
    Výška                                    : 720pixely
    Poměr stran                              : 16:9
    Frame rate                               : 30,000 FPS
    Color space                              : YUV
    Chroma subsampling                       : 4:2:0
    Bit depth                                : 8 bits
    Scan type                                : Progressive
    Compression mode                         : Lossy
    Bits/(Pixel*Frame)                       : 0.072
    Stream size                              : 875 MiB (91%)
    Enkódoval                                : XviD 1.2.1 (UTC 2008-12-04)

    Audio
    ID                                       : 1
    Formát                                   : MPEG Audio
    Format version                           : Version 1
    Format profile                           : Layer 3
    Format settings                          : Joint stereo / MS Stereo
    Codec ID                                 : 55
    Codec ID/Hint                            : MP3
    Duration                                 : 1 h 1 min
    Bit rate mode                            : Variable
    Bit rate                                 : 192 kb/s
    Kanál(y)                                 : 2 kanály
    Sampling rate                            : 44,1 kHz
    Compression mode                         : Lossy
    Stream size                              : 83,9 MiB (9%)
    Alignment                                : Aligned on interleaves
    Interleave, duration                     : 26  ms (0,78 video frame)
    Interleave, preload duration             : 331  ms














    PetrJaros, Alessa, Vili33, Jablonka,

    + Pridaj vlastnu verziu tohto torrentu +


    Upozornenie:
    Ziadny zo zobrazených súborov sa nenachádza na tomto serveri. Server slúzi len k síreniu vlastnorucne vytvorených aplikácií, videí, hudby ai. Autori stránok nenesú ziadnu zodpovednost za zverejnené odkazy, komentáre a obsah súborov. Vsetky komentáre, odkazy, súbory ktoré by svojou povahou mohli byt v rozpore zo zákonmi sem vkladáte na vlastnú zodpovednost. Autori stránok si vyhradzujú právo cenzúry odkazov, komentárov príp. súborov, ktoré by svojou povahou mohli byt v rozpore zo zákonmi a dobrými mravmi. Dodrzujte pravidlá!


    No comments...


    Back

    Na serveru se nenalézají zádne soubory. Za odkazy jsou výhradně zodpovědní uzivatelé a návstěvníci tohoto trackeru. Administrátor není zodpovědný za pridaný obsah ani za skody zpusobené uzivateli. Rozsirovat stránku nebo její obsah bez souhlasu ownera je zakázano. Nesmíte pouzívat tuto webovou stránku pro distribuovaní nebo download zádného materiálu pokud nemáte povolení od príslusného vlastníka práv. Uzivatelé jsou zodpovědní za dodrzování těchto pravidel a podmínek. Owner má právo kdykoliv změnit pravidla tohoto trackeru.

    [ Script trval: 0.035 sec. ] - [ GZIP: enabled ]
    Je zhruba 16:22

    TOPlist