Tvoj účet nieje VIP.
Preto sú tvoje funkcie a možnosti značne obmedzené.
Pre aktiváciu VIP klikni sem.

Climbing The Family Tree (2015)[DVDRIP][.MP4] | SkTorrent.eu

Cz-SkTorrent open Tracker, na volné zdieľanie súborov. Pridajte sa k našej komunite a získajte prístup k tisícom torrentov.

  • vysoká rýchlosť
  • úplne zdarma
  • prevažne Slovenská a Česká scéna
  • ste tu s nami už 10 rokov - Ďakujeme
  • Vitaj Guest (Login) Ako stahovat
    torrenty?
    Torrenty:
    v1 textová
    v2 obrázková
    Ako sa stat
    Uploaderom
    Online
    Filmy
    Forum
    Pravidlá
    SkTSocial
    BitTorrent
    klient
    Meno: Heslo:
    Zaregistrovat
    Po zaregistrovaní mozte volne stahovat
    Zabudol som heslo

    Climbing The Family Tree (2015)[DVDRIP][.MP4] Názov:Climbing The Family Tree (2015)[DVDRIP][.MP4] Hodnocení:N/A Stiahnut
    Pozriet Online
    Kategória:xXx - Velikost:1.9 GB BitTorrent klient
    Pridaný: Súbory:
    Skontrolován:2016-08-22 Peerov:0 (Seed: 0, Leech: 0)
    Zaner: Uploader:Uvidis, az ked budes
    VIP
    Kúp nám Pivo 1,10€

    Kúp nám Pivo
    Pridaj do zalozky
    Pridaj do zalozky



    Climbing The Family Tree (2015)[DVDRIP][.MP4]

    Screen:

    http://blobopics.biz/share-676A_57BAF003.html

    http://blobopics.biz/share-1A92_57BAF003.html

    http://blobopics.biz/share-58A3_57BAF003.html

    http://blobopics.biz/share-A0D0_57BAF003.html

    http://blobopics.biz/share-6043_57BAF003.html

    COVER:

    http://blobopics.biz/share-3BC3_57BAF003.html

    File Size: 1,92 GB | Resolution: 848x480 | Duration: 01:33:08 | Format: mp4

    Format : MPEG-4
    Format profile : Base Media
    Codec ID : isom
    File size : 1.93 GiB
    Duration : 1h 33mn
    Overall bit rate mode : Variable
    Overall bit rate : 2 964 Kbps
    Writing application : Lavf51.12.1

    Video
    ID : 1
    Format : AVC
    Format/Info : Advanced Video Codec
    Format profile : Baseline@L3.0
    Format settings, CABAC : No
    Format settings, ReFrames : 1 frame
    Format settings, GOP : M=1, N=12
    Codec ID : avc1
    Codec ID/Info : Advanced Video Coding
    Duration : 1h 33mn
    Source duration : 1h 33mn
    Bit rate mode : Variable
    Bit rate : 2 808 Kbps
    Maximum bit rate : 3 369 Kbps
    Width : 848 pixels
    Height : 480 pixels
    Display aspect ratio : 16:9
    Frame rate mode : Constant
    Frame rate : 29.970 fps
    Original frame rate : 24.000 fps
    Color space : YUV
    Chroma subsampling : 4:2:0
    Bit depth : 8 bits
    Scan type : Progressive
    Bits/(Pixel*Frame) : 0.230
    Stream size : 1.83 GiB (95%)
    Source stream size : 1.83 GiB (95%)

    Audio
    ID : 2
    Format : AAC
    Format/Info : Advanced Audio Codec
    Format profile : LC
    Codec ID : 40
    Duration : 1h 33mn
    Bit rate mode : Variable
    Bit rate : 152 Kbps
    Channel(s) : 2 channels
    Channel positions : Front: L R
    Sampling rate : 44.1 KHz
    Compression mode : Lossy
    Stream size : 101 MiB (5%)








    DC_DeteCtive_,

    + Pridaj vlastnu verziu tohto torrentu +


    Upozornenie:
    Ziadny zo zobrazených súborov sa nenachádza na tomto serveri. Server slúzi len k síreniu vlastnorucne vytvorených aplikácií, videí, hudby ai. Autori stránok nenesú ziadnu zodpovednost za zverejnené odkazy, komentáre a obsah súborov. Vsetky komentáre, odkazy, súbory ktoré by svojou povahou mohli byt v rozpore zo zákonmi sem vkladáte na vlastnú zodpovednost. Autori stránok si vyhradzujú právo cenzúry odkazov, komentárov príp. súborov, ktoré by svojou povahou mohli byt v rozpore zo zákonmi a dobrými mravmi. Dodrzujte pravidlá!


    No comments...


    Back

    Na serveru se nenalézají zádne soubory. Za odkazy jsou výhradně zodpovědní uzivatelé a návstěvníci tohoto trackeru. Administrátor není zodpovědný za pridaný obsah ani za skody zpusobené uzivateli. Nesmíte pouzívat tuto webovou stránku pro distribuovaní nebo download zádného materiálu pokud nemáte povolení od príslusného vlastníka práv. Uzivatelé jsou zodpovědní za dodrzování těchto pravidel a podmínek. Owner má právo kdykoliv změnit pravidla tohoto trackeru.

    [ Script trval: 0.059 sec. ] - [ GZIP: enabled ]
    Je zhruba 05:37
    sql

    TOPlist