Tvoj účet nieje VIP.
Preto sú tvoje funkcie a možnosti značne obmedzené.
Pre aktiváciu VIP klikni sem.

Co se děje v trávě / Lilliput-put (1980) = CSFD 88% | SkTorrent.eu

Cz-SkTorrent open Tracker, na volné zdieľanie súborov. Pridajte sa k našej komunite a získajte prístup k tisícom torrentov.

  • vysoká rýchlosť
  • úplne zdarma
  • prevažne Slovenská a Česká scéna
  • ste tu s nami už 10 rokov - Ďakujeme
  • Vitaj Guest (Login) Ako stahovat
    torrenty?
    Torrenty:
    v1 textová
    v2 obrázková
    Ako sa stat
    Uploaderom
    Online
    Filmy
    Forum
    Pravidlá
    SkTSocial
    BitTorrent
    klient
    Meno: Heslo:
    Zaregistrovat
    Po zaregistrovaní mozte volne stahovat
    Zabudol som heslo

    Co se děje v trávě / Lilliput-put (1980) = CSFD 88% Názov:Co se děje v trávě / Lilliput-put (1980) = CSFD 88% Hodnocení:N/A Stiahnut
    Pozriet Online
    Kategória:Seriál - Velikost:1.1 GB BitTorrent klient
    Pridaný: Súbory:
    Skontrolován:2024-06-28 Peerov:10 (Seed: 10, Leech: 0)
    Zaner:Animovany,Komedie,Rodinny Uploader:Uvidis, az ked budes
    VIP
    Kúp nám Pivo 1,10€

    Kúp nám Pivo

    Pridaj do zalozky
    Pridaj do zalozky




    Italský kreslený večerníček o hmyzí havěti, broucích a všelijakých parazitech - to vše od italského režiséra Bruna Bozzettiho v područí jeho vlastní firmy "Bruno Bozzetto Film - TSI". 

    Hlavní
    Celý název a cesta                       : C:\Users\Tomáš\Downloads\Co se děje v trávě 1980\Co+Se+D_je+v+Tráv_+E01+_ervík+CZ+Dabing_640x480.mp4
    Formát                                   : MPEG-4
    Format profile                           : Base Media
    Codec ID                                 : isom (isom/iso2/avc1/mp41)
    Velikost souboru                         : 86,4 MiB
    Duration                                 : 5 min 59 s
    Overall bit rate mode                    : Variable
    Celkový BitRate                          : 2 015 kb/s
    Frame rate                               : 25,083 FPS
    Název filmu                              : Co+Se+D_je+v+Tráv_+E01+_ervík+CZ+Dabing
    Performer                                : VideoProc Converter AI
    žánr                                     : Video
    Použitý software                         : Lavf60.3.100
    Komentář                                 : Co+Se+D_je+v+Tráv_+E01+_ervík+CZ+Dabing

    Video
    ID                                       : 1
    Formát                                   : AVC
    Formát/Info                              : Advanced Video Codec
    Format profile                           : Main@L3
    Format settings                          : CABAC / 4 Ref Frames
    Format settings, CABAC                   : Ano
    Format settings, Reference frames        : 4 frames
    Format settings, GOP                     : M=4, N=25
    Codec ID                                 : avc1
    Codec ID/Info                            : Advanced Video Coding
    Duration                                 : 5 min 59 s
    Bit rate mode                            : Variable
    Bit rate                                 : 1 846 kb/s
    Maximum bit rate                         : 8 000 kb/s
    Šířka                                    : 640pixely
    Výška                                    : 480pixely
    Poměr stran                              : 4:3
    Frame rate mode                          : Constant
    Frame rate                               : 25,083 FPS
    Color space                              : YUV
    Chroma subsampling                       : 4:2:0
    Bit depth                                : 8 bits
    Scan type                                : Progressive
    Bits/(Pixel*Frame)                       : 0.240
    Stream size                              : 79,1 MiB (92%)
    Codec configuration box                  : avcC

    Audio
    ID                                       : 2
    Formát                                   : AAC LC
    Formát/Info                              : Advanced Audio Codec Low Complexity
    Codec ID                                 : mp4a-40-2
    Duration                                 : 5 min 59 s
    Bit rate mode                            : Constant
    Bit rate                                 : 160 kb/s
    Kanál(y)                                 : 2 kanály
    Channel layout                           : L R
    Sampling rate                            : 44,1 kHz
    Frame rate                               : 43,066 FPS (1024 SPF)
    Compression mode                         : Lossy
    Stream size                              : 6,87 MiB (8%)
    Default                                  : Ano
    Alternate group                          : 1

    https://www.youtube.com/watch?v=vGSjOwnz6WE&list=PLXkA6SvogZFtb6ZPuT0_fDQtQmnZkeMWU&index=1

    https://www.csfd.cz/film/155483-co-se-deje-v-trave/recenze/
     








    Hrubec96, Tondik2, Milana, Mortifer, pohee, sa58, Mifor, Trip77, Alcarmo72,

    + Pridaj vlastnu verziu tohto torrentu +


    Upozornenie:
    Ziadny zo zobrazených súborov sa nenachádza na tomto serveri. Server slúzi len k síreniu vlastnorucne vytvorených aplikácií, videí, hudby ai. Autori stránok nenesú ziadnu zodpovednost za zverejnené odkazy, komentáre a obsah súborov. Vsetky komentáre, odkazy, súbory ktoré by svojou povahou mohli byt v rozpore zo zákonmi sem vkladáte na vlastnú zodpovednost. Autori stránok si vyhradzujú právo cenzúry odkazov, komentárov príp. súborov, ktoré by svojou povahou mohli byt v rozpore zo zákonmi a dobrými mravmi. Dodrzujte pravidlá!


    No comments...


    Back

    Na serveru se nenalézají zádne soubory. Za odkazy jsou výhradně zodpovědní uzivatelé a návstěvníci tohoto trackeru. Administrátor není zodpovědný za pridaný obsah ani za skody zpusobené uzivateli. Nesmíte pouzívat tuto webovou stránku pro distribuovaní nebo download zádného materiálu pokud nemáte povolení od príslusného vlastníka práv. Uzivatelé jsou zodpovědní za dodrzování těchto pravidel a podmínek. Owner má právo kdykoliv změnit pravidla tohoto trackeru.

    [ Script trval: 0.068 sec. ] - [ GZIP: enabled ]
    Je zhruba 04:03
    sql

    TOPlist