Tvoj účet nieje VIP.
Preto sú tvoje funkcie a možnosti značne obmedzené.
Pre aktiváciu VIP klikni sem.

Coco (2017)(CZ/SK/EN)[1080p][HEVC] = CSFD 87% | SkTorrent.eu

Cz-SkTorrent open Tracker, na volné zdielanie súborov. Pridajte sa k nasej komunite a získajte pristup k tisícom torrentov.

  • vysoká rýchlost
  • úplne zdarma
  • prevazne Slovenska a Ceska scena
  • ste tu s nami uz 5 rokov - Dakujeme
  • Vitaj Guest (Login) Ako stahovat
    torrenty?
    Torrenty:
    v1 textová
    v2 obrázková
    Ako sa stat
    Uploaderom
    Online
    Filmy
    Forum
    Pravidlá
    BitTorrent
    klient
    Meno: Heslo:
    Zaregistrovat
    Po zaregistrovaní mozte volne stahovat
    Zabudol som heslo

    Coco (2017)(CZ/SK/EN)[1080p][HEVC] = CSFD 87% Názov:Coco (2017)(CZ/SK/EN)[1080p][HEVC] = CSFD 87% Hodnocení: Stiahnut
    Pozriet Online
    Kategória:Filmy Kreslené Velikost:5.0 GB BitTorrent klient
    Pridaný: Súbory:
    Skontrolován:2022-09-03 Peerov:20 (Seed: 19, Leech: 1)
    Zaner:Animovany,Fantasy,Komedie,Rodinny Uploader:Uvidis, az ked budes
    VIP
    Kúp nám Pivo 1,10€

    Kúp nám Pivo
    Pridaj do zalozky
    Pridaj do zalozky











    Navzdory prazvláštnímu rodinnému zákazu muziky se Miguel touží stát uznávaným hudebníkem jako je jeho idol, Ernesto de la Cruz. V touze dokázat svůj talent se Miguel souhrou neuvěřitelných okolností ocitne v překrásné a barevné Říši mrtvých. Tam potká okouzlujícího šejdíře Hectora a společně se vypraví na strhující cestu odhalit skutečný příběh Miguelovy rodiny.



    Jazyk:


    Titulky:




    CSFD:





    Žánr:
    Animovaný / Komedie / Rodinný / Fantasy / Dobrodružný / Hudební




    Screenshots:



    MediaInfo:


    Video
    ID                                       : 1
    Formát                                   : HEVC
    Formát/Info                              : High Efficiency Video Coding
    Format profile                           : Main 10@L4.1@High
    Codec ID                                 : V_MPEGH/ISO/HEVC
    Duration                                 : 1 h 45 min
    Bit rate                                 : 5 314 kb/s
    Šířka                                    : 1 920pixely
    Výška                                    : 804pixely
    Poměr stran                              : 2,40:1
    Frame rate mode                          : Constant
    Frame rate                               : 23,976 (23976/1000) FPS
    Original frame rate                      : 23,976 (24000/1001) FPS
    Color space                              : YUV
    Chroma subsampling                       : 4:2:0
    Bit depth                                : 10 bits
    Bits/(Pixel*Frame)                       : 0.144
    Stream size                              : 3,90 GiB (78%)
    Enkódoval                                : x265 3.2.1+1-b5c86a64bbbe:[Windows][MSVC 1923][64 bit] 10bit
    Nastavení enkoderu                       : cpuid=1111039 / frame-threads=3 / numa-pools=12 / wpp / no-pmode / no-pme / no-psnr / no-ssim / log-level=2 / input-csp=1 / input-res=1920x804 / interlace=0 / total-frames=151096 / level-idc=41 / high-tier=1 / uhd-bd=0 / ref=5 / no-allow-non-conformance / no-repeat-headers / annexb / no-aud / no-hrd / info / hash=0 / no-temporal-layers / open-gop / min-keyint=23 / keyint=240 / gop-lookahead=0 / bframes=9 / b-adapt=2 / b-pyramid / bframe-bias=0 / rc-lookahead=60 / lookahead-slices=4 / scenecut=40 / radl=0 / no-splice / no-intra-refresh / ctu=32 / min-cu-size=8 / rect / amp / max-tu-size=32 / tu-inter-depth=4 / tu-intra-depth=4 / limit-tu=1 / rdoq-level=2 / dynamic-rd=0.00 / no-ssim-rd / signhide / no-tskip / nr-intra=0 / nr-inter=0 / no-constrained-intra / no-strong-intra-smoothing / max-merge=4 / limit-refs=2 / limit-modes / me=3 / subme=7 / merange=57 / temporal-mvp / no-hme / weightp / weightb / no-analyze-src-pics / deblock=-3:-3 / no-sao / no-sao-non-deblock / rd=6 / selective-sao=0 / no-early-skip / no-rskip / no-fast-intra / no-tskip-fast / no-cu-lossless / no-b-intra / no-splitrd-skip / rdpenalty=0 / psy-rd=2.00 / psy-rdoq=1.00 / no-rd-refine / no-lossless / cbqpoffs=0 / crqpoffs=0 / rc=crf / crf=20.0 / qcomp=0.65 / qpstep=4 / stats-write=0 / stats-read=0 / vbv-maxrate=50000 / vbv-bufsize=50000 / vbv-init=0.9 / crf-max=0.0 / crf-min=0.0 / ipratio=1.40 / pbratio=1.30 / aq-mode=1 / aq-strength=1.00 / no-cutree / zone-count=0 / no-strict-cbr / qg-size=32 / no-rc-grain / qpmax=69 / qpmin=0 / no-const-vbv / sar=1 / overscan=0 / videoformat=5 / range=0 / colorprim=1 / transfer=1 / colormatrix=1 / chromaloc=0 / display-window=0 / cll=0,0 / min-luma=0 / max-luma=1023 / log2-max-poc-lsb=8 / vui-timing-info / vui-hrd-info / slices=1 / no-opt-qp-pps / no-opt-ref-list-length-pps / no-multi-pass-opt-rps / scenecut-bias=0.05 / no-opt-cu-delta-qp / no-aq-motion / no-hdr / no-hdr-opt / no-dhdr10-opt / no-idr-recovery-sei / analysis-reuse-level=5 / scale-factor=0 / refine-intra=0 / refine-inter=0 / refine-mv=1 / refine-ctu-distortion=0 / no-limit-sao / ctu-info=0 / no-lowpass-dct / refine-analysis-type=0 / copy-pic=1 / max-ausize-factor=1.0 / no-dynamic-refine / no-single-sei / no-hevc-aq / no-svt / no-field / qp-adaptation-range=1.00
    Jazyk                                    : English
    Default                                  : Ano
    Forced                                   : Ne
    Color range                              : Limited
    Color primaries                          : BT.709
    Transfer characteristics                 : BT.709
    Matrix coefficients                      : BT.709

    Audio #1
    ID                                       : 2
    Formát                                   : AC-3
    Formát/Info                              : Audio Coding 3
    Commercial name                          : Dolby Digital
    Codec ID                                 : A_AC3
    Duration                                 : 1 h 45 min
    Bit rate mode                            : Constant
    Bit rate                                 : 448 kb/s
    Kanál(y)                                 : 6 kanály
    Channel layout                           : L R C LFE Ls Rs
    Sampling rate                            : 48,0 kHz
    Frame rate                               : 31,250 FPS (1536 SPF)
    Compression mode                         : Lossy
    Stream size                              : 337 MiB (7%)
    Jazyk                                    : Czech
    Service kind                             : Complete Main
    Default                                  : Ano
    Forced                                   : Ne

    Audio #2
    ID                                       : 3
    Formát                                   : AC-3
    Formát/Info                              : Audio Coding 3
    Commercial name                          : Dolby Digital
    Codec ID                                 : A_AC3
    Duration                                 : 1 h 45 min
    Bit rate mode                            : Constant
    Bit rate                                 : 384 kb/s
    Kanál(y)                                 : 6 kanály
    Channel layout                           : L R C LFE Ls Rs
    Sampling rate                            : 48,0 kHz
    Frame rate                               : 31,250 FPS (1536 SPF)
    Compression mode                         : Lossy
    Stream size                              : 289 MiB (6%)
    Jazyk                                    : Slovak
    Service kind                             : Complete Main
    Default                                  : Ne
    Forced                                   : Ne

    Audio #3
    ID                                       : 4
    Formát                                   : AC-3
    Formát/Info                              : Audio Coding 3
    Commercial name                          : Dolby Digital
    Codec ID                                 : A_AC3
    Duration                                 : 1 h 45 min
    Bit rate mode                            : Constant
    Bit rate                                 : 640 kb/s
    Kanál(y)                                 : 6 kanály
    Channel layout                           : L R C LFE Ls Rs
    Sampling rate                            : 48,0 kHz
    Frame rate                               : 31,250 FPS (1536 SPF)
    Compression mode                         : Lossy
    Stream size                              : 481 MiB (9%)
    Jazyk                                    : English
    Service kind                             : Complete Main
    Default                                  : Ne
    Forced                                   : Ne

    Text #1
    ID                                       : 5
    Formát                                   : UTF-8
    Codec ID                                 : S_TEXT/UTF8
    Codec ID/Info                            : UTF-8 Plain Text
    Duration                                 : 1 h 29 min
    Bit rate                                 : 0 b/s
    Frame rate                               : 0,002 FPS
    Count of elements                        : 13
    Stream size                              : 228 Bytes (0%)
    Titul                                    : forced
    Jazyk                                    : Czech
    Default                                  : Ano
    Forced                                   : Ano

    Text #2
    ID                                       : 6
    Formát                                   : UTF-8
    Codec ID                                 : S_TEXT/UTF8
    Codec ID/Info                            : UTF-8 Plain Text
    Duration                                 : 1 h 35 min
    Bit rate                                 : 64 b/s
    Frame rate                               : 0,284 FPS
    Count of elements                        : 1620
    Stream size                              : 45,2 KiB (0%)
    Titul                                    : full
    Jazyk                                    : Czech
    Default                                  : Ne
    Forced                                   : Ne

    Text #3
    ID                                       : 7
    Formát                                   : UTF-8
    Codec ID                                 : S_TEXT/UTF8
    Codec ID/Info                            : UTF-8 Plain Text
    Duration                                 : 1 h 35 min
    Bit rate                                 : 63 b/s
    Frame rate                               : 0,288 FPS
    Count of elements                        : 1642
    Stream size                              : 44,4 KiB (0%)
    Titul                                    : full
    Jazyk                                    : Slovak
    Default                                  : Ne
    Forced                                   : Ne

    Text #4
    ID                                       : 8
    Formát                                   : UTF-8
    Codec ID                                 : S_TEXT/UTF8
    Codec ID/Info                            : UTF-8 Plain Text
    Duration                                 : 1 h 37 min
    Bit rate                                 : 63 b/s
    Frame rate                               : 0,246 FPS
    Count of elements                        : 1441
    Stream size                              : 45,6 KiB (0%)
    Titul                                    : full
    Jazyk                                    : English
    Default                                  : Ne
    Forced                                   : Ne

    Menu
    00:00:00.000                             : en:Chapter 01
    00:06:40.191                             : en:Chapter 02
    00:08:41.520                             : en:Chapter 03
    00:11:13.589                             : en:Chapter 04
    00:14:20.317                             : en:Chapter 05
    00:17:06.942                             : en:Chapter 06
    00:18:20.933                             : en:Chapter 07
    00:22:05.991                             : en:Chapter 08
    00:24:19.958                             : en:Chapter 09
    00:27:44.829                             : en:Chapter 10
    00:29:07.912                             : en:Chapter 11
    00:32:15.308                             : en:Chapter 12
    00:35:18.407                             : en:Chapter 13
    00:41:25.524                             : en:Chapter 14
    00:47:04.696                             : en:Chapter 15
    00:50:54.175                             : en:Chapter 16
    00:54:23.885                             : en:Chapter 17
    00:56:45.026                             : en:Chapter 18
    01:01:42.615                             : en:Chapter 19
    01:03:28.137                             : en:Chapter 20
    01:08:58.217                             : en:Chapter 21
    01:15:17.262                             : en:Chapter 22
    01:18:56.773                             : en:Chapter 23
    01:21:31.761                             : en:Chapter 24
    01:24:31.816                             : en:Chapter 25
    01:28:23.464                             : en:Chapter 26
    01:33:14.755                             : en:Chapter 27
    01:36:10.472                             : en:Chapter 28
    01:45:01.753                             : en:Chapter 29






    Jedná se o mojí práci do HEVC, včetně přidaných audio stop. Záměrně dávám jen AC-3 stopy, protože vím, že ne všechny TV umí DTS, TrueHD apod., a pokud možno, tak 5.1 je samozřejmost. Pokud není 5.1 stopa ve videu, tak jsem ji nenašel nikde, případně nevyšla.




    ONLINE

    CZ dabing






    SK dabing









    Lampion104, Threadt, intelintel, llebo4,

    + Pridaj vlastnu verziu tohto torrentu +


    Upozornenie:
    Ziadny zo zobrazených súborov sa nenachádza na tomto serveri. Server slúzi len k síreniu vlastnorucne vytvorených aplikácií, videí, hudby ai. Autori stránok nenesú ziadnu zodpovednost za zverejnené odkazy, komentáre a obsah súborov. Vsetky komentáre, odkazy, súbory ktoré by svojou povahou mohli byt v rozpore zo zákonmi sem vkladáte na vlastnú zodpovednost. Autori stránok si vyhradzujú právo cenzúry odkazov, komentárov príp. súborov, ktoré by svojou povahou mohli byt v rozpore zo zákonmi a dobrými mravmi. Dodrzujte pravidlá!





    0
    Koryto01
    Ratio 92907111.4

    Clen

    07/10/2022 14.52.39
    ahoj nový animák Náměsíčníci nemáš možnost.. díky


    Back

    Na serveru se nenalézají zádne soubory. Za odkazy jsou výhradně zodpovědní uzivatelé a návstěvníci tohoto trackeru. Administrátor není zodpovědný za pridaný obsah ani za skody zpusobené uzivateli. Nesmíte pouzívat tuto webovou stránku pro distribuovaní nebo download zádného materiálu pokud nemáte povolení od príslusného vlastníka práv. Uzivatelé jsou zodpovědní za dodrzování těchto pravidel a podmínek. Owner má právo kdykoliv změnit pravidla tohoto trackeru.

    [ Script trval: 0.046 sec. ] - [ GZIP: enabled ]
    Je zhruba 21:40
    sql

    TOPlist