Tvoj účet nieje VIP.
Preto sú tvoje funkcie a možnosti značne obmedzené.
Pre aktiváciu VIP klikni sem.

Conan Barbar - Trilogy (1982-1985)(Remastered)(1080p)(CZ/EN) = CSFD 75% | SkTorrent.eu

Cz-SkTorrent open Tracker, na volné zdielanie súborov. Pridajte sa k nasej komunite a získajte pristup k tisícom torrentov.

  • vysoká rýchlost
  • úplne zdarma
  • prevazne Slovenska a Ceska scena
  • ste tu s nami uz 5 rokov - Dakujeme
  • Vitaj Guest (Login) Ako stahovat
    torrenty?
    Torrenty:
    v1 textová
    v2 obrázková
    v3 online filmy
    Ako sa stat
    Uploaderom
    Online
    Filmy
    Forum
    Pravidlá
    BitTorrent
    klient
    Meno: Heslo:
    Zaregistrovat
    Po zaregistrovaní mozte volne stahovat
    Zabudol som heslo

    Torrent's details
    Conan Barbar - Trilogy (1982-1985)(Remastered)(1080p)(CZ/EN) = CSFD 75% Názov:Conan Barbar - Trilogy (1982-1985)(Remastered)(1080p)(CZ/EN) = CSFD 75% Hodnocení: Stiahnut
    Pozriet Online
    Kategória:HD Filmy Velikost:19.2 GB BitTorrent klient
    Pridaný: Súbory:
    Skontrolován:2021-06-16 Peerov:18 (Seed: 16, Leech: 2)
    Zaner:Akcni,Dobrodruzny,Fantasy Uploader:Uvidis, az ked budes
    VIP
    Kúp nám Pivo 1,10€

    Kúp nám Pivo
    Podporte nas na Facebooku !
    Pridaj do zalozky
    Pridaj do zalozky








    Conan Barbar - Trilogy (1982-1985)(Remastered)


    Conan the Barbarian - Barbar Conan
    Conan the Destroyer - Ničitel Conan
    Red Sonja - Rudá Sonja
    BluRay rip CZ/2xCZ a EN/2xEN púvodní dabing + CZ+ tit

                   










    Conan the Barbarian - Barbar Conan
    Akční / Fantasy / Dobrodružný
    USA, 1982, 129 min
    Režie: John Milius
    Předloha: Robert E. Howard (kniha)
    Scénář: John Milius, Oliver Stone
    Kamera: Duke Callahan
    Hudba: Basil Poledouris
    Hrají: (Arnold Schwarzenegger - ), James Earl Jones, Max von Sydow, Sandahl Bergman, Ben Davidson, Mako, Valérie Quennessen, William Smith, Franco Columbu
    Conan the Destroyer - Ničitel Conan
    Akční / Fantasy / Dobrodružný
    USA, 1984, 103 min
    Režie: Richard Fleischer
    Předloha: Robert E. Howard (kniha)
    Scénář: Stanley Mann
    Kamera: Jack Cardiff
    Hudba: Basil Poledouris
    Hrají: (Arnold Schwarzenegger - ), Grace Jones, Wilt Chamberlain, Mako, Tracey Walter, Sarah Douglas, Olivia d'Abo, Jeff Corey, Sven-Ole Thorsen
    Red Sonja - Rudá Sonja
    Fantasy / Akční / Dobrodružný
    USA / Nizozemsko, 1985, 89 min
    Režie: Richard Fleischer
    Scénář: Clive Exton, George MacDonald Fraser
    Kamera: Giuseppe Rotunno
    Hudba: Ennio Morricone
    Hrají: (Arnold Schwarzenegger - ), Brigitte Nielsen, Sandahl Bergman, Paul L. Smith, Ernie Reyes Jr., Ronald Lacey, Janet Agren, Hans Meyer





    Conan the Barbarian - Barbar Conan
    Malému Conanovi zabijí nepřátelští válečníci rodiče a odvedou ho do otroctví. Když vyroste, najme si ho jistý mocný pán jako zápasníka.Jeho putování za pomstou může začít. Potkává dalšího bojovníka a blonďatou zlodějku. Oba se k němu připojí. Dozvídají se o hadím kultu, v jehož čele stojí Tursa Soudce, který má řadu shodných rysů s vrahy Conanových rodičů. Conanovi se tak naskýtá neopakovatelná příležitost zabít muže, který ho připravil o otce a matku. Kde nestačí síla, musí pomoci magie, a tak se ke společnosti přidá ještě čaroděj a vlastně i vypravěč celého příběhu
    Conan the Destroyer - Ničitel Conan
    Potulný lupič Conan se při putování se svým společníkem Malakem střetne s královnou Taramis. Ta mu dá nabídku, aby doprovodil její panenskou neteř Jehnnu ukrást bájný roh boha Dagotha. Taramis Conanovi slíbí, že po návratu oživí jeho mrtvou lásku Valerii, a Conan nabídku přijme.Během cesty Conan vysvobodí svého přítele, čaroděje Akira, před kanibaly a bojovnici Zulu před bandity. Akira i Zulu se ke skupině přidají. Společně pak dorazí na bájný hrad mága Thoth-Amona, který však Jehnnu unese. Conana čeká souboj v labyrintu s krvelačnou příšerou, kterou se mu podaří zneškodnit – ukáže se, že příšera byla jednou z Thot-Amonových podob. Skupině se podaří získat drahokam, s jehož pomocí lze hledaný roh obnovit, ale střetnou se se strážci drahokamu. Oni však tento pokus přežijí, prohlédnou léčku královny Taramis a vydají se do jejího paláce...
    Red Sonja - Rudá Sonja
    Udatný Kalidor ((Arnold Schwarzenegger - )) jako hlavní hrdina bájného příběhu o válce mezi dobrem a zlem v dobách temna. Kalidor a Rudá Sonja (Brigitte Nielsen) bojují společně proti zlé královně Gedreně, která s pomocí magického Talismanu touží ovládnout celý svět...








    Format                                   : Matroska
    Format version                           : Version 4
    File size                                : 4.97 GiB
    Duration                                 : 2 h 10 min
    Overall bit rate                         : 5 448 kb/s


    Video
    Bit rate                                 : 4 391 kb/s
    Width                                    : 1 920 pixels
    Height                                   : 824 pixels
    Display aspect ratio                     : 2.40:1

    Audio #1
    ID                                       : 2
    Format                                   : AC-3
    Format/Info                              : Audio Coding 3
    Commercial name                          : Dolby Digital
    Codec ID                                 : A_AC3
    Duration                                 : 2 h 10 min
    Bit rate mode                            : Constant
    Bit rate                                 : 448 kb/s
    Channel(s)                               : 6 channels
    Stream size                              : 418 MiB (8%)
    Title                                    : DVD, BD 5.1 Surround CZ

    Audio #2
    ID                                       : 3
    Format                                   : AC-3
    Format/Info                              : Audio Coding 3
    Commercial name                          : Dolby Digital
    Bit rate                                 : 384 kb/s
    Channel(s)                               : 6 channels
    Channel layout                           : L R C LFE Ls Rs
    Sampling rate                            : 48.0 kHz
    Delay relative to video                  : -21 ms
    Stream size                              : 359 MiB (7%)
    Title                                    : VHS, TV 5.1 Surround CZ
    Language                                 : Czech

    Audio #3
    ID                                       : 4
    Format                                   : AAC LC
    Bit rate                                 : 224 kb/s
    Channel(s)                               : 6 channels
    Title                                    : AAC 5.1 EN
    Language                                 : English
    Default                                  : Yes
    Forced                                   : No

    -----------------------

    Format                                   : Matroska
    Format version                           : Version 4
    File size                                : 7.19 GiB
    Duration                                 : 1 h 41 min
    Overall bit rate                         : 10.2 Mb/s

    Video
    ID                                       : 1
    Format                                   : AVC
    Format/Info                              : Advanced Video Codec
    Duration                                 : 1 h 41 min
    Bit rate                                 : 9 297 kb/s
    Width                                    : 1 920 pixels
    Height                                   : 816 pixels
    Stream size                              : 6.57 GiB (91%)


    Audio #1
    ID                                       : 2
    Format                                   : AC-3
    Format/Info                              : Audio Coding 3
    Commercial name                          : Dolby Digital
    Codec ID                                 : A_AC3
    Bit rate                                 : 640 kb/s
    Channel(s)                               : 6 channels
    Stream size                              : 464 MiB (6%)
    Title                                    : AC3 DD 5.1 CZ
    Language                                 : Czech


    Audio #2
    ID                                       : 3
    Format                                   : AAC LC
    Bit rate                                 : 224 kb/s
    Channel(s)                               : 6 channels
    Sampling rate                            : 48.0 kHz
    Title                                    : AAC DD 5.1 EN
    Language                                 : English


    -------------

    Format                                   : Matroska
    Format version                           : Version 4
    File size                                : 7.03 GiB
    Duration                                 : 1 h 28 min
    Overall bit rate                         : 11.3 Mb/s


    Video
    ID                                       : 1
    Format                                   : AVC
    Duration                                 : 1 h 28 min
    Bit rate                                 : 9 054 kb/s
    Width                                    : 1 920 pixels
    Height                                   : 824 pixels
    Stream size                              : 5.62 GiB (80%)


    Audio #1
    ID                                       : 2
    Format                                   : AC-3
    Commercial name                          : Dolby Digital
    Bit rate                                 : 224 kb/s
    Channel(s)                               : 2 channels
    Channel layout                           : L R
    Stream size                              : 142 MiB (2%)
    Title                                    : DD 2.0 CZ
    Language                                 : Czech

    Audio #2
    ID                                       : 4
    Format                                   : DTS
    Bit rate                                 : 1 509 kb/s
    Channel(s)                               : 6 channels
    Channel layout                           : C L R Ls Rs LFE
    Stream size                              : 959 MiB (13%)
    Title                                    : DTS 5.1 EN
    Language                                 : English


    Audio #3
    ID                                       : 6
    Format                                   : AC-3
    Format/Info                              : Audio Coding 3
    Commercial name                          : Dolby Digital
    Channel(s)                               : 2 channels
    Title                                    : DD 2.0 CZ
    Language                                 : Czech


    Audio #4
    ID                                       : 7
    Format                                   : AAC LC
    Bit rate                                 : 94.0 kb/s
    Channel(s)                               : 2 channels
    Channel layout                           : L R
    Stream size                              : 59.7 MiB (1%)
    Title                                    : AAC 2.0 EN
    Language                                 : English
















    martinjc, Carter83, tomasdeen, mimu, Trismegistos, mattess10, Sleeper1984, pajka11, Jablonka,

    + Pridaj vlastnu verziu tohto torrentu +


    Upozornenie:
    Ziadny zo zobrazených súborov sa nenachádza na tomto serveri. Server slúzi len k síreniu vlastnorucne vytvorených aplikácií, videí, hudby ai. Autori stránok nenesú ziadnu zodpovednost za zverejnené odkazy, komentáre a obsah súborov. Vsetky komentáre, odkazy, súbory ktoré by svojou povahou mohli byt v rozpore zo zákonmi sem vkladáte na vlastnú zodpovednost. Autori stránok si vyhradzujú právo cenzúry odkazov, komentárov príp. súborov, ktoré by svojou povahou mohli byt v rozpore zo zákonmi a dobrými mravmi. Dodrzujte pravidlá!





    0
    XavierCZE
    Ratio 2.17

    Member+

    11/07/2021 00.20.53
    barbar conan nemá titulky..

    0
    666Morlock
    Ratio 1.73

    Member+

    18/06/2021 10.21.54
    Perfektný torrent


    --------------
    >> 18/06/2021 16.34.50
    UPLOADER: Dakujem...


    Back

    Na serveru se nenalézají zádne soubory. Za odkazy jsou výhradně zodpovědní uzivatelé a návstěvníci tohoto trackeru. Administrátor není zodpovědný za pridaný obsah ani za skody zpusobené uzivateli. Rozsirovat stránku nebo její obsah bez souhlasu ownera je zakázano. Nesmíte pouzívat tuto webovou stránku pro distribuovaní nebo download zádného materiálu pokud nemáte povolení od príslusného vlastníka práv. Uzivatelé jsou zodpovědní za dodrzování těchto pravidel a podmínek. Owner má právo kdykoliv změnit pravidla tohoto trackeru.

    [ Script trval: 0.275 sec. ] - [ GZIP: enabled ]
    BtiTracker (1.4.8) by Btiteam
    Je zhruba 01:13

    TOPlist