Tvoj účet nieje VIP.
Preto sú tvoje funkcie a možnosti značne obmedzené.
Pre aktiváciu VIP klikni sem.

Ctyri lvi / Four Lions (2010)(CZ) = CSFD 73% | SkTorrent.eu

Cz-SkTorrent open Tracker, na volné zdielanie súborov. Pridajte sa k nasej komunite a získajte pristup k tisícom torrentov.

  • vysoká rýchlost
  • úplne zdarma
  • prevazne Slovenska a Ceska scena
  • ste tu s nami uz 5 rokov - Dakujeme
  • Vitaj Guest (Login) Ako stahovat
    torrenty?
    Torrenty:
    v1 textová
    v2 obrázková
    Ako sa stat
    Uploaderom
    Online
    Filmy
    Forum
    Pravidlá
    BitTorrent
    klient
    Meno: Heslo:
    Zaregistrovat
    Po zaregistrovaní mozte volne stahovat
    Zabudol som heslo

    Ctyri lvi / Four Lions (2010)(CZ) = CSFD 73% Názov:Ctyri lvi / Four Lions (2010)(CZ) = CSFD 73% Hodnocení:N/A Stiahnut
    Pozriet Online
    Kategória:Filmy CZ/SK dabing Velikost:701.2 MB BitTorrent klient
    Pridaný: Súbory:
    Skontrolován:2014-03-22 Peerov:0 (Seed: 0, Leech: 0)
    Zaner:Drama,Komedie Uploader:Uvidis, az ked budes
    VIP
    Kúp nám Pivo 1,10€

    Kúp nám Pivo
    Pridaj do zalozky
    Pridaj do zalozky





    Jazyk: CZ - čeština
    Titulky: nejsou
    Kvalita zvuku: 2.0         |   128 Kbps
    Kvalita videa: 608 x 336   |   872 Kbps
    Odkaz na CSFD: http://www.csfd.cz/film/275183-ctyri-lvi/
    Rok vydání: 2010
    Délka: 1 h.  37 min.
    Žánr: Komedie / Drama



    Režie: Christopher Morris

    Hrají:
    Benedict Cumberbatch, Julia Davis, Alex MacQueen, Preeya Kalidas, Darren Boyd, Kevin Eldon, Will Adamsdale, Riz Ahmed

    Popis:
    Agilní Omar (Riz Ahmed) a trochu pomalejší Waj (Kavan Novak) jedou na výcvik do teroristického tréninkového tábora do Pákistánu, ale po čase jsou odtud vyhozeni pro neschopnost. Dalšími členy teroristické buňky jsou bílý muslim Barry (Nigel Lindsay) a magor Faisal (Adeel Akhtar), který umí sestrojit bombu a rozhodne se vytrénovat vrány, aby se staly nosiči bomb. Pátým členem je Hassan (Arsher Ali), ale ten dlouho nevydrží – při tréninku sám sebe usmrtí. Film končí scénou, kdy se samozvaní teroristé pokusí v převlecích spáchat sebevraždu při londýnském maratónu, ale vše samozřejmě dopadne jinak.



    Screen:

    Media info:Ctyri.lvi.2010.DVDRip.XviD.CZ.avi
    Format: AVI
    Format/Info: Audio Video Interleave
    File size: 701 MiB
    Duration: 1h 37mn
    Overall bit rate: 1 010 Kbps
    Writing application: VirtualDubMod 1.5.10.2 (build 2540/release)
    Writing library: VirtualDubMod build 2540/release

    Video
    ID: 0
    Format: MPEG-4 Visual
    Format profile: Advanced Simple@L5
    Format settings, BVOP: 2
    Format settings, QPel: No
    Format settings, GMC: No warppoints
    Format settings, Matrix: Default (H.263)
    Muxing mode: Packed bitstream
    Codec ID: DX50
    Codec ID/Hint: DivX 5
    Duration: 1h 37mn
    Bit rate: 872 Kbps
    Width: 608 pixels
    Height: 336 pixels
    Display aspect ratio: 16:9
    Frame rate: 25.000 fps
    Color space: YUV
    Chroma subsampling: 4:2:0
    Bit depth: 8 bits
    Scan type: Progressive
    Compression mode: Lossy
    Bits/(Pixel*Frame): 0.171
    Stream size: 606 MiB (86%)
    Writing library: XviD 1.2.1 (UTC 2008-12-04)

    Audio
    ID: 1
    Format: MPEG Audio
    Format version: Version 1
    Format profile: Layer 3
    Mode: Joint stereo
    Mode extension: MS Stereo
    Codec ID: 55
    Codec ID/Hint: MP3
    Duration: 1h 37mn
    Bit rate mode: Constant
    Bit rate: 128 Kbps
    Channel(s): 2 channels
    Sampling rate: 48.0 KHz
    Compression mode: Lossy
    Delay relative to video: 24ms
    Stream size: 88.9 MiB (13%)
    Alignment: Aligned on interleaves
    Interleave, duration: 40 ms (1.00 video frame)
    Interleave, preload duration: 504 ms

    Trailer CZ:









    Jura1979,

    + Pridaj vlastnu verziu tohto torrentu +


    Upozornenie:
    Ziadny zo zobrazených súborov sa nenachádza na tomto serveri. Server slúzi len k síreniu vlastnorucne vytvorených aplikácií, videí, hudby ai. Autori stránok nenesú ziadnu zodpovednost za zverejnené odkazy, komentáre a obsah súborov. Vsetky komentáre, odkazy, súbory ktoré by svojou povahou mohli byt v rozpore zo zákonmi sem vkladáte na vlastnú zodpovednost. Autori stránok si vyhradzujú právo cenzúry odkazov, komentárov príp. súborov, ktoré by svojou povahou mohli byt v rozpore zo zákonmi a dobrými mravmi. Dodrzujte pravidlá!


    No comments...


    Back

    Na serveru se nenalézají zádne soubory. Za odkazy jsou výhradně zodpovědní uzivatelé a návstěvníci tohoto trackeru. Administrátor není zodpovědný za pridaný obsah ani za skody zpusobené uzivateli. Nesmíte pouzívat tuto webovou stránku pro distribuovaní nebo download zádného materiálu pokud nemáte povolení od príslusného vlastníka práv. Uzivatelé jsou zodpovědní za dodrzování těchto pravidel a podmínek. Owner má právo kdykoliv změnit pravidla tohoto trackeru.

    [ Script trval: 0.025 sec. ] - [ GZIP: enabled ]
    Je zhruba 15:57
    sql

    TOPlist