Tvoj účet nieje VIP.
Preto sú tvoje funkcie a možnosti značne obmedzené.
Pre aktiváciu VIP klikni sem.

Cyberpunk - Edgerunners (S01)(2022)(1080p)(AVC)(WebDl)(CZ+Multi 6 lang)(MultiSUB) = CSFD 84% | SkTorrent.eu

Cz-SkTorrent open Tracker, na volné zdieľanie súborov. Pridajte sa k našej komunite a získajte prístup k tisícom torrentov.

  • vysoká rýchlosť
  • úplne zdarma
  • prevažne Slovenská a Česká scéna
  • ste tu s nami už 10 rokov - Ďakujeme
  • Vitaj Guest (Login) Ako stahovat
    torrenty?
    Torrenty:
    v1 textová
    v2 obrázková
    Ako sa stat
    Uploaderom
    Online
    Filmy
    Forum
    Pravidlá
    SkTSocial
    BitTorrent
    klient
    Meno: Heslo:
    Zaregistrovat
    Po zaregistrovaní mozte volne stahovat
    Zabudol som heslo

    Cyberpunk - Edgerunners (S01)(2022)(1080p)(AVC)(WebDl)(CZ+Multi 6 lang)(MultiSUB) = CSFD 84% Názov:Cyberpunk - Edgerunners (S01)(2022)(1080p)(AVC)(WebDl)(CZ+Multi 6 lang)(MultiSUB) = CSFD 84% Hodnocení:N/A Stiahnut
    Pozriet Online
    Kategória:Seriál - Velikost:3.2 GB BitTorrent klient
    Pridaný: Súbory:
    Skontrolován:2023-01-20 Peerov:10 (Seed: 10, Leech: 0)
    Zaner:Akcni,Animovany,Sci-Fi Uploader:Uvidis, az ked budes
    VIP
    Kúp nám Pivo 1,10€

    Kúp nám Pivo

    Pridaj do zalozky
    Pridaj do zalozky




    [center]







    Movie Name: Cyberpunk - Edgerunners (S01)(2022)(Complete)
    IMDb Rating: 8.3/10

    Quality: 1080p (WebDL)
    Language: AAC 2.0 - English , Czech , Germany , Polish , Japanese , Hungarian
    Subtitles: Multi
    Director: Hirojuki Imaiši, Akira Amemija, Jošijuki Kaneko
    Writers: Masahiko Ócuka, Jošiki Usa
    Genres: Action | Animation | Adventure |


    A Street Kid trying to survive in a technology and body modification-obsessed city of the future. Having everything to lose, he chooses to stay alive by becoming an Edgerunner, a Mercenary outlaw also known as a Cyberpunk.




    [/center]
    Format                                   : MPEG-4
    Format profile                           : Base Media
    Codec ID                                 : isom (isom/iso2/avc1/mp41)
    File size                                : 304 MiB
    Duration                                 : 25 min 36 s
    Overall bit rate mode                    : Variable
    Overall bit rate                         : 1 660 kb/s
    Collection                               : Cyberpunk: Edgerunners
    Season                                   : 1
    Track name                               : Nezklamu tě
    Description                              : Po noci strávené streamováním ilegálních bédéček se David probudí do reality ve zchátralém bytě s rozbitou pračkou a utahanou matkou.
    Writing application                      : Lavf58.76.100
    Cover                                    : Yes
    Part_ID                                  : 1

    Video
    ID                                       : 1
    Format                                   : AVC
    Format/Info                              : Advanced Video Codec
    Format profile                           : High@L4
    Format settings                          : CABAC / 4 Ref Frames
    Format settings, CABAC                   : Yes
    Format settings, Reference frames        : 4 frames
    Codec ID                                 : avc1
    Codec ID/Info                            : Advanced Video Coding
    Duration                                 : 25 min 34 s
    Bit rate mode                            : Variable
    Bit rate                                 : 879 kb/s
    Maximum bit rate                         : 20.0 Mb/s
    Width                                    : 1 920 pixels
    Height                                   : 1 080 pixels
    Display aspect ratio                     : 16:9
    Frame rate mode                          : Constant
    Frame rate                               : 23.976 (24000/1001) FPS
    Color space                              : YUV
    Chroma subsampling                       : 4:2:0
    Bit depth                                : 8 bits
    Scan type                                : Progressive
    Bits/(Pixel*Frame)                       : 0.018
    Stream size                              : 161 MiB (53%)
    Title                                    : ?@GPAC2.1-DEV-rev6244-g8335b99ea-HEAD
    Writing library                          : x264 core 148 r2727 7d026e8
    Encoding settings                        : cabac=1 / ref=4 / deblock=1:0:0 / analyse=0x3:0x111 / me=umh / subme=10 / psy=1 / psy_rd=1.00:0.00 / mixed_ref=1 / me_range=120 / chroma_me=1 / trellis=2 / 8x8dct=1 / cqm=0 / deadzone=21,11 / fast_pskip=1 / chroma_qp_offset=-2 / threads=8 / lookahead_threads=2 / sliced_threads=0 / nr=0 / decimate=1 / interlaced=0 / bluray_compat=0 / stitchable=1 / constrained_intra=0 / bframes=16 / b_pyramid=2 / b_adapt=2 / b_bias=0 / direct=3 / weightb=1 / open_gop=0 / weightp=2 / keyint=240 / keyint_min=121 / scenecut=0 / intra_refresh=0 / rc_lookahead=240 / rc=crf / mbtree=1 / crf=25.0 / qcomp=0.50 / qpmin=6 / qpmax=51 / qpstep=4 / vbv_maxrate=20000 / vbv_bufsize=25000 / crf_max=0.0 / nal_hrd=vbr / filler=0 / ip_ratio=1.40 / aq=1:0.80
    Codec configuration box                  : avcC

    Audio #1
    ID                                       : 3
    Format                                   : AAC LC SBR
    Format/Info                              : Advanced Audio Codec Low Complexity with Spectral Band Replication
    Commercial name                          : HE-AAC
    Format settings                          : Explicit
    Codec ID                                 : mp4a-40-2
    Duration                                 : 25 min 36 s
    Bit rate mode                            : Constant
    Bit rate                                 : 128 kb/s
    Channel(s)                               : 2 channels
    Channel layout                           : L R
    Sampling rate                            : 48.0 kHz
    Frame rate                               : 23.438 FPS (2048 SPF)
    Compression mode                         : Lossy
    Stream size                              : 23.4 MiB (8%)
    Title                                    : čeština
    Language                                 : Czech
    Default                                  : Yes
    Alternate group                          : 2

    Audio #2
    ID                                       : 4
    Format                                   : AAC LC SBR
    Format/Info                              : Advanced Audio Codec Low Complexity with Spectral Band Replication
    Commercial name                          : HE-AAC
    Format settings                          : Explicit
    Codec ID                                 : mp4a-40-2
    Duration                                 : 25 min 36 s
    Bit rate mode                            : Constant
    Bit rate                                 : 128 kb/s
    Channel(s)                               : 2 channels
    Channel layout                           : L R
    Sampling rate                            : 48.0 kHz
    Frame rate                               : 23.438 FPS (2048 SPF)
    Compression mode                         : Lossy
    Stream size                              : 23.4 MiB (8%)
    Title                                    : němčina
    Language                                 : German
    Default                                  : No
    Alternate group                          : 3

    Audio #3
    ID                                       : 5
    Format                                   : AAC LC SBR
    Format/Info                              : Advanced Audio Codec Low Complexity with Spectral Band Replication
    Commercial name                          : HE-AAC
    Format settings                          : Explicit
    Codec ID                                 : mp4a-40-2
    Duration                                 : 25 min 36 s
    Bit rate mode                            : Constant
    Bit rate                                 : 128 kb/s
    Channel(s)                               : 2 channels
    Channel layout                           : L R
    Sampling rate                            : 48.0 kHz
    Frame rate                               : 23.438 FPS (2048 SPF)
    Compression mode                         : Lossy
    Stream size                              : 23.4 MiB (8%)
    Title                                    : angličtina
    Language                                 : English
    Default                                  : Yes
    Alternate group                          : 4

    Audio #4
    ID                                       : 6
    Format                                   : AAC LC SBR
    Format/Info                              : Advanced Audio Codec Low Complexity with Spectral Band Replication
    Commercial name                          : HE-AAC
    Format settings                          : Explicit
    Codec ID                                 : mp4a-40-2
    Duration                                 : 25 min 36 s
    Bit rate mode                            : Constant
    Bit rate                                 : 128 kb/s
    Channel(s)                               : 2 channels
    Channel layout                           : L R
    Sampling rate                            : 48.0 kHz
    Frame rate                               : 23.438 FPS (2048 SPF)
    Compression mode                         : Lossy
    Stream size                              : 23.4 MiB (8%)
    Title                                    : maďarština
    Language                                 : Hungarian
    Default                                  : Yes
    Alternate group                          : 5

    Audio #5
    ID                                       : 7
    Format                                   : AAC LC SBR
    Format/Info                              : Advanced Audio Codec Low Complexity with Spectral Band Replication
    Commercial name                          : HE-AAC
    Format settings                          : Explicit
    Codec ID                                 : mp4a-40-2
    Duration                                 : 25 min 36 s
    Bit rate mode                            : Constant
    Bit rate                                 : 128 kb/s
    Channel(s)                               : 2 channels
    Channel layout                           : L R
    Sampling rate                            : 48.0 kHz
    Frame rate                               : 23.438 FPS (2048 SPF)
    Compression mode                         : Lossy
    Stream size                              : 23.4 MiB (8%)
    Title                                    : japonština [Originál]
    Language                                 : Japanese
    Default                                  : Yes
    Alternate group                          : 6

    Audio #6
    ID                                       : 8
    Format                                   : AAC LC SBR
    Format/Info                              : Advanced Audio Codec Low Complexity with Spectral Band Replication
    Commercial name                          : HE-AAC
    Format settings                          : Explicit
    Codec ID                                 : mp4a-40-2
    Duration                                 : 25 min 36 s
    Bit rate mode                            : Constant
    Bit rate                                 : 128 kb/s
    Channel(s)                               : 2 channels
    Channel layout                           : L R
    Sampling rate                            : 48.0 kHz
    Frame rate                               : 23.438 FPS (2048 SPF)
    Compression mode                         : Lossy
    Stream size                              : 23.4 MiB (8%)
    Title                                    : polština
    Language                                 : Polish
    Default                                  : Yes
    Alternate group                          : 7

    Text #1
    ID                                       : 9
    Format                                   : Timed Text
    Muxing mode                              : sbtl
    Codec ID                                 : tx3g
    Duration                                 : 24 min 4 s
    Bit rate mode                            : Variable
    Bit rate                                 : 71 b/s
    Frame rate                               : 0.406 FPS
    Stream size                              : 12.5 KiB (0%)
    Title                                    : čeština
    Language                                 : Czech
    Default                                  : No
    Forced                                   : No
    Alternate group                          : 8

    Text #2
    ID                                       : 10
    Format                                   : Timed Text
    Muxing mode                              : sbtl
    Codec ID                                 : tx3g
    Duration                                 : 21 min 58 s
    Bit rate mode                            : Variable
    Bit rate                                 : 4 b/s
    Frame rate                               : 0.039 FPS
    Stream size                              : 587 Bytes (0%)
    Title                                    : Czech [ForcedNarrative]
    Language                                 : Czech
    Default                                  : Yes
    Forced                                   : No
    Alternate group                          : 9

    Text #3
    ID                                       : 11
    Format                                   : Timed Text
    Muxing mode                              : sbtl
    Codec ID                                 : tx3g
    Duration                                 : 23 min 59 s
    Bit rate mode                            : Variable
    Bit rate                                 : 80 b/s
    Frame rate                               : 0.415 FPS
    Stream size                              : 14.1 KiB (0%)
    Title                                    : němčina
    Language                                 : German
    Default                                  : No
    Forced                                   : No
    Alternate group                          : 10

    Text #4
    ID                                       : 12
    Format                                   : Timed Text
    Muxing mode                              : sbtl
    Codec ID                                 : tx3g
    Duration                                 : 21 min 58 s
    Bit rate mode                            : Variable
    Bit rate                                 : 2 b/s
    Frame rate                               : 0.025 FPS
    Stream size                              : 400 Bytes (0%)
    Title                                    : German [ForcedNarrative]
    Language                                 : German
    Default                                  : No
    Forced                                   : No
    Alternate group                          : 11

    Text #5
    ID                                       : 13
    Format                                   : Timed Text
    Muxing mode                              : sbtl
    Codec ID                                 : tx3g
    Duration                                 : 22 min 25 s
    Bit rate mode                            : Variable
    Bit rate                                 : 93 b/s
    Frame rate                               : 0.490 FPS
    Stream size                              : 15.2 KiB (0%)
    Title                                    : angličtina
    Language                                 : English
    Default                                  : No
    Forced                                   : No
    Alternate group                          : 12

    Text #6
    ID                                       : 14
    Format                                   : Timed Text
    Muxing mode                              : sbtl
    Codec ID                                 : tx3g
    Duration                                 : 22 min 25 s
    Bit rate mode                            : Variable
    Bit rate                                 : 66 b/s
    Frame rate                               : 0.381 FPS
    Stream size                              : 10.9 KiB (0%)
    Title                                    : angličtina
    Language                                 : English
    Default                                  : No
    Forced                                   : No
    Alternate group                          : 13

    Text #7
    ID                                       : 15
    Format                                   : Timed Text
    Muxing mode                              : sbtl
    Codec ID                                 : tx3g
    Duration                                 : 23 min 57 s
    Bit rate mode                            : Variable
    Bit rate                                 : 111 b/s
    Frame rate                               : 0.585 FPS
    Stream size                              : 19.5 KiB (0%)
    Title                                    : angličtina [CC]
    Language                                 : English
    Default                                  : No
    Forced                                   : No
    Alternate group                          : 14

    Text #8
    ID                                       : 16
    Format                                   : Timed Text
    Muxing mode                              : sbtl
    Codec ID                                 : tx3g
    Duration                                 : 22 min 25 s
    Bit rate mode                            : Variable
    Bit rate                                 : 75 b/s
    Frame rate                               : 0.422 FPS
    Stream size                              : 12.3 KiB (0%)
    Title                                    : maďarština
    Language                                 : Hungarian
    Default                                  : No
    Forced                                   : No
    Alternate group                          : 15

    Text #9
    ID                                       : 17
    Format                                   : Timed Text
    Muxing mode                              : sbtl
    Codec ID                                 : tx3g
    Duration                                 : 21 min 58 s
    Bit rate mode                            : Variable
    Bit rate                                 : 1 b/s
    Frame rate                               : 0.016 FPS
    Stream size                              : 231 Bytes (0%)
    Title                                    : Hungarian [ForcedNarrative]
    Language                                 : Hungarian
    Default                                  : No
    Forced                                   : No
    Alternate group                          : 16

    Text #10
    ID                                       : 18
    Format                                   : Timed Text
    Muxing mode                              : sbtl
    Codec ID                                 : tx3g
    Duration                                 : 24 min 2 s
    Bit rate mode                            : Variable
    Bit rate                                 : 110 b/s
    Frame rate                               : 0.559 FPS
    Stream size                              : 19.4 KiB (0%)
    Title                                    : japonština [CC]
    Language                                 : Japanese
    Default                                  : No
    Forced                                   : No
    Alternate group                          : 17

    Text #11
    ID                                       : 19
    Format                                   : Timed Text
    Muxing mode                              : sbtl
    Codec ID                                 : tx3g
    Duration                                 : 24 min 4 s
    Bit rate mode                            : Variable
    Bit rate                                 : 2 b/s
    Frame rate                               : 0.021 FPS
    Stream size                              : 384 Bytes (0%)
    Title                                    : Polish [ForcedNarrative]
    Language                                 : Polish
    Default                                  : No
    Forced                                   : No
    Alternate group                          : 18

    Text #12
    ID                                       : 20
    Format                                   : Timed Text
    Muxing mode                              : sbtl
    Codec ID                                 : tx3g
    Duration                                 : 22 min 25 s
    Bit rate mode                            : Variable
    Bit rate                                 : 118 b/s
    Frame rate                               : 0.444 FPS
    Stream size                              : 19.4 KiB (0%)
    Title                                    : ukrajinština
    Language                                 : Ukrainian
    Default                                  : No
    Forced                                   : No
    Alternate group                          : 19









    pohee, Smikso2077, Nightroad,

    + Pridaj vlastnu verziu tohto torrentu +


    Upozornenie:
    Ziadny zo zobrazených súborov sa nenachádza na tomto serveri. Server slúzi len k síreniu vlastnorucne vytvorených aplikácií, videí, hudby ai. Autori stránok nenesú ziadnu zodpovednost za zverejnené odkazy, komentáre a obsah súborov. Vsetky komentáre, odkazy, súbory ktoré by svojou povahou mohli byt v rozpore zo zákonmi sem vkladáte na vlastnú zodpovednost. Autori stránok si vyhradzujú právo cenzúry odkazov, komentárov príp. súborov, ktoré by svojou povahou mohli byt v rozpore zo zákonmi a dobrými mravmi. Dodrzujte pravidlá!


    No comments...


    Back

    Na serveru se nenalézají zádne soubory. Za odkazy jsou výhradně zodpovědní uzivatelé a návstěvníci tohoto trackeru. Administrátor není zodpovědný za pridaný obsah ani za skody zpusobené uzivateli. Nesmíte pouzívat tuto webovou stránku pro distribuovaní nebo download zádného materiálu pokud nemáte povolení od príslusného vlastníka práv. Uzivatelé jsou zodpovědní za dodrzování těchto pravidel a podmínek. Owner má právo kdykoliv změnit pravidla tohoto trackeru.

    [ Script trval: 0.085 sec. ] - [ GZIP: enabled ]
    Je zhruba 11:50
    memcache

    TOPlist