Tvoj účet nieje VIP.
Preto sú tvoje funkcie a možnosti značne obmedzené.
Pre aktiváciu VIP klikni sem.

CzechCasting - Monika 2392 (31.1.2016)(CZ)[1080p] | SkTorrent.eu

Cz-SkTorrent open Tracker, na volné zdielanie súborov. Pridajte sa k nasej komunite a získajte pristup k tisícom torrentov.

  • vysoká rýchlost
  • úplne zdarma
  • prevazne Slovenska a Ceska scena
  • ste tu s nami uz 5 rokov - Dakujeme
  • Vitaj Guest (Login) Ako stahovat
    torrenty?
    Torrenty:
    v1 textová
    v2 obrázková
    v3 online filmy
    Ako sa stat
    Uploaderom
    Online
    Filmy
    Forum
    Pravidlá
    BitTorrent
    klient
    Meno: Heslo:
    Zaregistrovat
    Po zaregistrovaní mozte volne stahovat
    Zabudol som heslo

    Torrent's details
    CzechCasting - Monika 2392 (31.1.2016)(CZ)[1080p] Názov:CzechCasting - Monika 2392 (31.1.2016)(CZ)[1080p] Hodnocení:N/A Stiahnut
    Pozriet Online
    Kategória:xXx Velikost:718.4 MB BitTorrent klient
    Pridaný: Súbory:
    Skontrolován:2016-01-31 Peerov:1 (Seed: 0, Leech: 1)
    Zaner: Uploader:Uvidis, az ked budes
    VIP
    Kúp nám Pivo 1,10€

    Kúp nám Pivo
    Podporte nas na Facebooku !
    Pridaj do zalozky
    Pridaj do zalozky







    Jazyk: český
    Titulky: engl.
    Rok vydání: 2016
    Délka: 24mn 16s
    ®ánr: xXx

    Media info :CzechCasting.31.01.2016.Monika.2392.XXX.1080p.MP4-KTRN1Ccc.16.01.31.monika.2392N1C.mp4
      General
         Complete name : CzechCasting.31.01.2016.Monika.2392.XXX.1080p.MP4-KTRN1Ccc.16.01.31.monika.2392N1C.mp4
         Format : MPEG-4
         Format profile : Base Media
         Codec ID : isom
         File size : 718 MiB
         Duration : 24mn 16s
         Overall bit rate : 4 137 Kbps
         Writing application : Lavf56.36.100
      Video #1
         ID : 1
         Format : AVC
         Format/Info : Advanced Video Codec
         Format profile : High@L5.0
         Format settings, CABAC : Yes
         Format settings, ReFrames : 5 frames
         Codec ID : avc1
         Codec ID/Info : Advanced Video Coding
         Duration : 24mn 16s
         Bit rate : 4 000 Kbps
         Width : 1 920 pixels
         Height : 1 080 pixels
         Display aspect ratio : 16:9
         Frame rate mode : Constant
         Frame rate : 25.000 fps
         Color space : YUV
         Chroma subsampling : 4:2:0
         Bit depth : 8 bits
         Scan type : Progressive
         Bits/(Pixel*Frame) : 0.077
         Stream size : 695 MiB (97%)
         Writing library : x264 core 148 r2 e86f3a1
         Encoding settings : cabac=1 / ref=5 / deblock=1:0:0 / analyse=0x3:0x113 / me=umh / subme=8 / psy=1 / psy_rd=1.00:0.00 / mixed_ref=1 / me_range=16 / chroma_me=1 / trellis=1 / 8x8dct=1 / cqm=0 / deadzone=21,11 / fast_pskip=1 / chroma_qp_offset=-2 / threads=12 / lookahead_threads=2 / sliced_threads=0 / nr=0 / decimate=1 / interlaced=0 / bluray_compat=0 / constrained_intra=0 / bframes=3 / b_pyramid=2 / b_adapt=2 / b_bias=0 / direct=3 / weightb=1 / open_gop=0 / weightp=2 / keyint=250 / keyint_min=25 / scenecut=40 / intra_refresh=0 / rc_lookahead=50 / rc=abr / mbtree=1 / bitrate=4000 / ratetol=1.0 / qcomp=0.60 / qpmin=0 / qpmax=69 / qpstep=4 / ip_ratio=1.40 / aq=1:1.00
      Audio #2
         ID : 2
         Format : AAC
         Format/Info : Advanced Audio Codec
         Format profile : LC
         Codec ID : 40
         Duration : 24mn 16s
         Bit rate mode : Constant
         Bit rate : 128 Kbps
         Channel(s) : 2 channels
         Channel positions : Front: L R
         Sampling rate : 48.0 KHz
         Compression mode : Lossy
         Delay relative to video : 80ms
         Stream size : 22.2 MiB (3%)


    screen :









    + Pridaj vlastnu verziu tohto torrentu +


    Upozornenie:
    Ziadny zo zobrazených súborov sa nenachádza na tomto serveri. Server slúzi len k síreniu vlastnorucne vytvorených aplikácií, videí, hudby ai. Autori stránok nenesú ziadnu zodpovednost za zverejnené odkazy, komentáre a obsah súborov. Vsetky komentáre, odkazy, súbory ktoré by svojou povahou mohli byt v rozpore zo zákonmi sem vkladáte na vlastnú zodpovednost. Autori stránok si vyhradzujú právo cenzúry odkazov, komentárov príp. súborov, ktoré by svojou povahou mohli byt v rozpore zo zákonmi a dobrými mravmi. Dodrzujte pravidlá!





    6
    Bajumba
    Ratio 37.64

    Member+

    01/02/2016 17.06.29


    Back

    Na serveru se nenalézají zádne soubory. Za odkazy jsou výhradně zodpovědní uzivatelé a návstěvníci tohoto trackeru. Administrátor není zodpovědný za pridaný obsah ani za skody zpusobené uzivateli. Rozsirovat stránku nebo její obsah bez souhlasu ownera je zakázano. Nesmíte pouzívat tuto webovou stránku pro distribuovaní nebo download zádného materiálu pokud nemáte povolení od príslusného vlastníka práv. Uzivatelé jsou zodpovědní za dodrzování těchto pravidel a podmínek. Owner má právo kdykoliv změnit pravidla tohoto trackeru.

    [ Script trval: 0.039 sec. ] - [ GZIP: enabled ]
    BtiTracker (1.4.8) by Btiteam
    Je zhruba 02:58

    TOPlist