Tvoj účet nieje VIP.
Preto sú tvoje funkcie a možnosti značne obmedzené.
Pre aktiváciu VIP klikni sem.

CzechStreets E126 Aka Rychly Prachy Bald Rebel XXX 1080p | SkTorrent.eu

Cz-SkTorrent open Tracker, na volné zdielanie súborov. Pridajte sa k nasej komunite a získajte pristup k tisícom torrentov.

  • vysoká rýchlost
  • úplne zdarma
  • prevazne Slovenska a Ceska scena
  • ste tu s nami uz 5 rokov - Dakujeme
  • Vitaj Guest (Login) Ako stahovat
    torrenty?
    Torrenty:
    v1 textová
    v2 obrázková
    v3 online filmy
    Ako sa stat
    Uploaderom
    Online
    Filmy
    Forum
    Pravidlá
    BitTorrent
    klient
    Meno: Heslo:
    Zaregistrovat
    Po zaregistrovaní mozte volne stahovat
    Zabudol som heslo

    Torrent's details
    CzechStreets E126 Aka Rychly Prachy Bald Rebel XXX 1080p Názov:CzechStreets E126 Aka Rychly Prachy Bald Rebel XXX 1080p Hodnocení: Stiahnut
    Pozriet Online
    Kategória:xXx Velikost:720.4 MB BitTorrent klient
    Pridaný: Súbory:
    Skontrolován:2020-06-30 Peerov:14 (Seed: 13, Leech: 1)
    Zaner: Uploader:Uvidis, az ked budes
    VIP
    Kúp nám Pivo 1,10€

    Kúp nám Pivo
    Podporte nas na Facebooku !
    Pridaj do zalozky
    Pridaj do zalozky






    Popis
    CzechStreets.E126.Aka.Rychly.Prachy.Bald.Rebel.XXX.1080p.MP4-KTR



    Dĺžka : 19 min 58 sek
    Formát : MP4, MPEG-4 Video File
    Kategória : XXX 18+
    Jazyk : CZE , SVK
    Titulky : ENG (HC)





    RYCHLÝ PRACHY - Plešatá rebelka 30.06.2020

    [size=150]Přátelé a fanoušci *censored*ání za prachy, radši si sedněte a nalijte si něco vostrýho. Tohle by vás totiž mohlo skolit a to by bylo fakt blbý, když už jste všichni ve zdraví přežili koronu. V jedné klidné pražské čtvrti jsem objevil neuvěřitelnou holku, s hlavou jako koleno. Jmenuje se Laura, je ze Slovenska a je jí 25. Začalo chcát a já jsem se jí snažil rychle ukecat, aby mi ukázala, jestli je vyholená i dole. Potetovaná Laura se ukázala, jako drsná rebelka, která má pravidla v *censored*. Musel jsem vypláznout 10 táců, aby si sundala šaty a dalších 10, aby mě pustila mezi nohy. Vrazil jsem jí *censored*a do huby a sklátil do velké louže. Prcali jsme v bahně, jako zvířata. Plešatý rebelce se to tak líbilo, že tekla, jako rozpuštěný máslo. Lidi, to byl masakr! Na rozloučenou jsem jí nastříkal *censored*ku na plešku a mazal se domů odbahnit. Jsem zvědavej, co na to budete říkat. Bavte se!







    Formát                                   : MPEG-4
    Format profile                           : Base Media
    Codec ID                                 : isom (isom/iso2/avc1/mp41)
    Velikost souboru                         : 720 MiB
    Duration                                 : 19 min 58 s
    Celkový BitRate                          : 5 042 kb/s
    Název filmu                              : RARBG - CzechStreets.E126.Bald.Rebel.XXX.1080p.MP4-KTR
    Použitý software                         : Lavf57.83.100
    Komentář                                 : RARBG - CzechStreets.E126.Bald.Rebel.XXX.1080p.MP4-KTR

    Video
    ID                                       : 1
    Formát                                   : AVC
    Formát/Info                              : Advanced Video Codec
    Format profile                           : High@L5
    Format settings                          : CABAC / 5 Ref Frames
    Format settings, CABAC                   : Ano
    Format settings, Reference frames        : 5 frames
    Codec ID                                 : avc1
    Codec ID/Info                            : Advanced Video Coding
    Duration                                 : 19 min 58 s
    Bit rate                                 : 4 906 kb/s
    Šířka                                    : 1 920pixely
    Výška                                    : 1 080pixely
    Poměr stran                              : 16:9
    Frame rate mode                          : Constant
    Frame rate                               : 25,000 FPS
    Color space                              : YUV
    Chroma subsampling                       : 4:2:0
    Bit depth                                : 8 bits
    Scan type                                : Progressive
    Bits/(Pixel*Frame)                       : 0.095
    Stream size                              : 701 MiB (97%)
    Enkódoval                                : x264 core 148
    Codec configuration box                  : avcC

    Audio
    ID                                       : 2
    Formát                                   : AAC LC
    Formát/Info                              : Advanced Audio Codec Low Complexity
    Codec ID                                 : mp4a-40-2
    Duration                                 : 19 min 58 s
    Duration_LastFrame                       : -16 ms
    Bit rate mode                            : Constant
    Bit rate                                 : 132 kb/s
    Kanál(y)                                 : 2 kanály
    Channel layout                           : L R
    Sampling rate                            : 48,0 kHz
    Frame rate                               : 46,875 FPS (1024 SPF)
    Compression mode                         : Lossy
    Stream size                              : 18,6 MiB (3%)
    Default                                  : Ano
    Alternate group                          : 1

       








    karhan, rosenhort,

    + Pridaj vlastnu verziu tohto torrentu +


    Upozornenie:
    Ziadny zo zobrazených súborov sa nenachádza na tomto serveri. Server slúzi len k síreniu vlastnorucne vytvorených aplikácií, videí, hudby ai. Autori stránok nenesú ziadnu zodpovednost za zverejnené odkazy, komentáre a obsah súborov. Vsetky komentáre, odkazy, súbory ktoré by svojou povahou mohli byt v rozpore zo zákonmi sem vkladáte na vlastnú zodpovednost. Autori stránok si vyhradzujú právo cenzúry odkazov, komentárov príp. súborov, ktoré by svojou povahou mohli byt v rozpore zo zákonmi a dobrými mravmi. Dodrzujte pravidlá!


    No comments...


    Back

    Na serveru se nenalézají zádne soubory. Za odkazy jsou výhradně zodpovědní uzivatelé a návstěvníci tohoto trackeru. Administrátor není zodpovědný za pridaný obsah ani za skody zpusobené uzivateli. Rozsirovat stránku nebo její obsah bez souhlasu ownera je zakázano. Nesmíte pouzívat tuto webovou stránku pro distribuovaní nebo download zádného materiálu pokud nemáte povolení od príslusného vlastníka práv. Uzivatelé jsou zodpovědní za dodrzování těchto pravidel a podmínek. Owner má právo kdykoliv změnit pravidla tohoto trackeru.

    [ Script trval: 0.023 sec. ] - [ GZIP: enabled ]
    BtiTracker (1.4.8) by Btiteam
    Je zhruba 08:50

    TOPlist