Tvoj účet nieje VIP.
Preto sú tvoje funkcie a možnosti značne obmedzené.
Pre aktiváciu VIP klikni sem.

Den pote / The Day After Tomorrow (2004)(CZ/EN)(2160p 4K WEB-Dl)(HDR) = CSFD 66% | SkTorrent.eu

Cz-SkTorrent open Tracker, na volné zdielanie súborov. Pridajte sa k nasej komunite a získajte pristup k tisícom torrentov.

  • vysoká rýchlost
  • úplne zdarma
  • prevazne Slovenska a Ceska scena
  • ste tu s nami uz 5 rokov - Dakujeme
  • Vitaj Guest (Login) Ako stahovat
    torrenty?
    Torrenty:
    v1 textová
    v2 obrázková
    v3 online filmy
    Ako sa stat
    Uploaderom
    Online
    Filmy
    Forum
    Pravidlá
    BitTorrent
    klient
    Meno: Heslo:
    Zaregistrovat
    Po zaregistrovaní mozte volne stahovat
    Zabudol som heslo

    Torrent's details
    Den pote / The Day After Tomorrow (2004)(CZ/EN)(2160p 4K WEB-Dl)(HDR) = CSFD 66% Názov:Den pote / The Day After Tomorrow (2004)(CZ/EN)(2160p 4K WEB-Dl)(HDR) = CSFD 66% Hodnocení: Stiahnut
    Pozriet Online
    Kategória:UHD Filmy Velikost:22.8 GB BitTorrent klient
    Pridaný: Súbory:
    Skontrolován:2021-07-28 Peerov:11 (Seed: 11, Leech: 0)
    Zaner:Drama,Katastroficky,Sci-Fi,Thriller Uploader:Uvidis, az ked budes
    VIP
    Kúp nám Pivo 1,10€

    Kúp nám Pivo
    Podporte nas na Facebooku !
    Pridaj do zalozky
    Pridaj do zalozky






    Den pote / The Day After Tomorrow
    (2004)(CZ/EN) = CSFD 66%

    2160p 4K HDR10 - HEVC – 26.4 Mb/s Bitrate verzia

    ... Na zelanie ...





    Video: 2160p 4K HDR10 - HEVC
    Jazyk: CZ 5.1 DD / SK 5.1 DD / EN 7.1 DTS-HD / EN 5.1 DD
    Titulky: CZ Full / EN Full + Forced
    Katastroficky / Drama / Thriller / Sci-Fi
    USA 2004
    123 min

    PRODUKCE & HERCI

    Režie: Roland Emmerich
    Scénář: Jeffrey Nachmanoff
    Kamera: Ueli Steiger
    Hudba: Harald Kloser
    Hrají: Dennis Quaid, (Jake Gyllenhaal - ), Ian Holm, Emmy Rossum, Sela Ward, Dash Mihok, Kenneth Welsh, Jay O. Sanders, Austin Nichols, Perry King, Nestor Serrano, Adrian Lester, Sheila McCarthy, Arjay Smith, Glenn Plummer, Tamlyn Tomita, Sasha Roiz, Mimi Kuzyk, Tim Bagley, Rick Hoffman, Chuck Shamata, Larry Day, Amy Sloan, Caroline Keenan, Aaron Lustig, Emanuel Hoss-Desmarais, Frank Schorpion, Anne Day-Jones, Jason Blicker, John Colton, Russell Yuen, Joe Cobden, John MacLaren, José Ramón Rosario, Matt Adler, Terry Simpson, Joel McNichol, Gordon Masten, Tony Calabretta, Rosey Edeh, Jack Laufer, Carl Alacchi, Lina Patel, Phillip Jarrett, Terry Rhoads, Kenneth Moskow, J.P. Manoux, Vitali Makarov, Pauline Little, Vivian Winther, Matt Holland, Pierre Leblanc, Greg Kramer, Ayana O'Shun

    OBSAH

    Výzkumy klimatologa Jacka Halla (Dennis Quaid), naznačují, že by globální oteplování mohlo spustit prudkou a katastrofální změnu zemského klimatu. Všechno začalo, když se Hall stal svědkem odlomení ledové kry o velikosti Rhode Islandu z antarktického ledového pole. Na celé zeměkouli následovaly prudké změny počasí: v Tokiu padaly kroupy o velikosti grapefruitu, rekordy lámající hurikán řádil na Havaji, v Dillí napadl sníh a přes Los Angeles se přehnala ničivá série tornád. Profesor Rapsona (Ian Holm) potvrdil Jackovy nejhorší obavy: tyto prudké změny počasí jsou příznakem velké globální změny. Množství vody z tajících polárních ledovců narušilo mořské proudy stabilizující náš klimatický systém. Globální oteplování posunulo planetu na pokraj nové doby ledové, která nastane během jedné globální superbouře...

    SCREEN



    TRAILER






    Hlavní
    Formát : Matroska
    Format version : Version 4
    Velikost souboru : 22,8 GiB
    Duration : 2 h 3 min
    Overall bit rate mode : Variable
    Celkový BitRate : 26,4 Mb/s
    Encoded date : UTC 2021-07-27 19:54:01
    Použitý software : mkvmerge v31.0.0 ('Dolores In A Shoestand') 64-bit
    Enkódoval : libebml v1.3.6 + libmatroska v1.4.9

    Video
    ID : 1
    Formát : HEVC
    Formát/Info : High Efficiency Video Coding
    Format profile : Main 10@L5@High
    HDR format : SMPTE ST 2086, HDR10 compatible
    Codec ID : V_MPEGH/ISO/HEVC
    Duration : 2 h 3 min
    Bit rate : 16,5 Mb/s
    Šířka : 3 840pixely
    Výška : 2 160pixely
    Poměr stran : 16:9
    Frame rate mode : Constant
    Frame rate : 23,976 (24000/1001) FPS
    Color space : YUV
    Chroma subsampling : 4:2:0
    Bit depth : 10 bits
    Bits/(Pixel*Frame) : 0.083
    Stream size : 14,2 GiB (62%)
    Jazyk : English
    Default : Ano
    Forced : Ne
    Color range : Limited
    Color primaries : BT.2020
    Transfer characteristics : PQ
    Matrix coefficients : BT.2020 non-constant
    Mastering display color primaries : Display P3
    Mastering display luminance : min: 0.0050 cd/m2, max: 1000 cd/m2

    Audio #1
    ID : 2
    Formát : DTS XLL
    Formát/Info : Digital Theater Systems
    Commercial name : DTS-HD Master Audio
    Codec ID : A_DTS
    Duration : 2 h 3 min
    Bit rate mode : Variable
    Bit rate : 4 169 kb/s
    Kanál(y) : 6 kanály
    Channel layout : C L R Ls Rs LFE
    Sampling rate : 48,0 kHz
    Frame rate : 93,750 FPS (512 SPF)
    Bit depth : 24 bits
    Compression mode : Lossless
    Stream size : 3,60 GiB (16%)
    Titul : DTS-HD MA 5.1
    Jazyk : English
    Default : Ne
    Forced : Ne

    Audio #2
    ID : 3
    Formát : AC-3
    Formát/Info : Audio Coding 3
    Commercial name : Dolby Digital
    Codec ID : A_AC3
    Duration : 2 h 3 min
    Bit rate mode : Constant
    Bit rate : 640 kb/s
    Kanál(y) : 6 kanály
    Channel layout : L R C LFE Ls Rs
    Sampling rate : 48,0 kHz
    Frame rate : 31,250 FPS (1536 SPF)
    Compression mode : Lossy
    Stream size : 566 MiB (2%)
    Titul : DD 5.1
    Jazyk : English
    Service kind : Complete Main
    Default : Ne
    Forced : Ne

    Audio #3
    ID : 6
    Formát : AC-3
    Formát/Info : Audio Coding 3
    Commercial name : Dolby Digital
    Codec ID : A_AC3
    Duration : 2 h 3 min
    Bit rate mode : Constant
    Bit rate : 448 kb/s
    Kanál(y) : 6 kanály
    Channel layout : L R C LFE Ls Rs
    Sampling rate : 48,0 kHz
    Frame rate : 31,250 FPS (1536 SPF)
    Compression mode : Lossy
    Video delay : 50 ms
    Stream size : 396 MiB (2%)
    Jazyk : Czech
    Service kind : Complete Main
    Default : Ano
    Forced : Ano

    Audio #4
    ID : 7
    Formát : DTS XLL
    Formát/Info : Digital Theater Systems
    Commercial name : DTS-HD Master Audio
    Codec ID : A_DTS
    Duration : 2 h 3 min
    Bit rate mode : Variable
    Bit rate : 4 136 kb/s
    Kanál(y) : 6 kanály
    Channel layout : C L R Ls Rs LFE
    Sampling rate : 48,0 kHz
    Frame rate : 93,750 FPS (512 SPF)
    Bit depth : 24 bits
    Compression mode : Lossless
    Stream size : 3,57 GiB (16%)
    Jazyk : English
    Default : Ne
    Forced : Ne

    Audio #5
    ID : 10
    Formát : AAC LC
    Formát/Info : Advanced Audio Codec Low Complexity
    Codec ID : A_AAC-2
    Duration : 2 h 3 min
    Bit rate : 495 kb/s
    Kanál(y) : 6 kanály
    Channel layout : C L R Ls Rs LFE
    Sampling rate : 48,0 kHz
    Frame rate : 46,875 FPS (1024 SPF)
    Compression mode : Lossy
    Video delay : 50 ms
    Stream size : 438 MiB (2%)
    Jazyk : Slovak
    Default : Ne
    Forced : Ne

    Text #1
    ID : 4
    Formát : UTF-8
    Codec ID : S_TEXT/UTF8
    Codec ID/Info : UTF-8 Plain Text
    Duration : 3 s 587 ms
    Bit rate : 118 b/s
    Count of elements : 2
    Stream size : 53,0 Bytes (0%)
    Titul : English Forced
    Jazyk : English
    Default : Ne
    Forced : Ano

    Text #2
    ID : 5
    Formát : UTF-8
    Codec ID : S_TEXT/UTF8
    Codec ID/Info : UTF-8 Plain Text
    Duration : 2 h 3 min
    Bit rate : 59 b/s
    Count of elements : 1826
    Stream size : 53,8 KiB (0%)
    Titul : English [CC]
    Jazyk : English
    Default : Ne
    Forced : Ne

    Text #3
    ID : 8
    Formát : VobSub
    Muxing mode : zlib
    Codec ID : S_VOBSUB
    Codec ID/Info : Picture based subtitle format used on DVDs
    Duration : 2 h 2 min
    Bit rate : 6 080 b/s
    Count of elements : 1154
    Stream size : 5,34 MiB (0%)
    Jazyk : Czech
    Default : Ne
    Forced : Ne

    Text #4
    ID : 9
    Formát : UTF-8
    Codec ID : S_TEXT/UTF8
    Codec ID/Info : UTF-8 Plain Text
    Duration : 1 h 54 min
    Bit rate : 43 b/s
    Count of elements : 1154
    Stream size : 36,8 KiB (0%)
    Jazyk : Czech
    Default : Ano
    Forced : Ano

    Menu
    00:00:00.000 : Main Titles
    00:03:07.562 : Giving Way
    00:06:15.792 : U.N. Conference
    00:09:17.182 : A Big Drop
    00:12:04.432 : Old Wounds
    00:15:42.733 : A Bumpy Ride
    00:18:37.700 : Bad Omens
    00:20:45.661 : The Decathlon
    00:22:41.402 : Too Fast
    00:24:13.327 : L.A.
    00:31:22.923 : Worst Case Scenario
    00:38:26.304 : Mountain Of Data
    00:42:14.949 : New York City
    00:48:08.010 : Wall Of Water
    00:51:15.656 : The New Ice Age
    00:54:12.416 : Contact
    01:03:00.151 : Presidential Briefing
    01:06:22.353 : A Toast
    01:08:09.836 : Life Or Death
    01:11:26.615 : North And South
    01:13:40.249 : Hard Choices
    01:17:46.995 : Warming Up
    01:20:52.431 : A Good Friend Gone
    01:24:08.001 : The Age Of Reason
    01:27:57.647 : Passing the Torch
    01:29:35.870 : The View From Space
    01:32:18.616 : Aboard The Ship
    01:38:42.958 : Eye Of The Storm
    01:41:34.463 : Promises To Keep
    01:46:57.911 : The Last Mile
    01:50:41.676 : Moving Forward
    01:55:38.598 : End Titles







    VDAKA ZA BODY a SEEDUJTE
















    pepa49, dave8888, Luba1963, mattess10, Roman2196, Ladislav137, DoktorRob, paarek,

    + Pridaj vlastnu verziu tohto torrentu +


    Upozornenie:
    Ziadny zo zobrazených súborov sa nenachádza na tomto serveri. Server slúzi len k síreniu vlastnorucne vytvorených aplikácií, videí, hudby ai. Autori stránok nenesú ziadnu zodpovednost za zverejnené odkazy, komentáre a obsah súborov. Vsetky komentáre, odkazy, súbory ktoré by svojou povahou mohli byt v rozpore zo zákonmi sem vkladáte na vlastnú zodpovednost. Autori stránok si vyhradzujú právo cenzúry odkazov, komentárov príp. súborov, ktoré by svojou povahou mohli byt v rozpore zo zákonmi a dobrými mravmi. Dodrzujte pravidlá!


    No comments...


    Back

    Na serveru se nenalézají zádne soubory. Za odkazy jsou výhradně zodpovědní uzivatelé a návstěvníci tohoto trackeru. Administrátor není zodpovědný za pridaný obsah ani za skody zpusobené uzivateli. Rozsirovat stránku nebo její obsah bez souhlasu ownera je zakázano. Nesmíte pouzívat tuto webovou stránku pro distribuovaní nebo download zádného materiálu pokud nemáte povolení od príslusného vlastníka práv. Uzivatelé jsou zodpovědní za dodrzování těchto pravidel a podmínek. Owner má právo kdykoliv změnit pravidla tohoto trackeru.

    [ Script trval: 0.022 sec. ] - [ GZIP: enabled ]
    Je zhruba 15:45

    TOPlist