Tvoj účet nieje VIP.
Preto sú tvoje funkcie a možnosti značne obmedzené.
Pre aktiváciu VIP klikni sem.

Des (S01)(CZ)(HDTV-Rip)(1080p)(2020) = CSFD 78% | SkTorrent.eu

Cz-SkTorrent open Tracker, na volné zdielanie súborov. Pridajte sa k nasej komunite a získajte pristup k tisícom torrentov.

  • vysoká rýchlost
  • úplne zdarma
  • prevazne Slovenska a Ceska scena
  • ste tu s nami uz 5 rokov - Dakujeme
  • Vitaj Guest (Login) Ako stahovat
    torrenty?
    Torrenty:
    v1 textová
    v2 obrázková
    Ako sa stat
    Uploaderom
    Online
    Filmy
    Forum
    Pravidlá
    BitTorrent
    klient
    Meno: Heslo:
    Zaregistrovat
    Po zaregistrovaní mozte volne stahovat
    Zabudol som heslo

    Des (S01)(CZ)(HDTV-Rip)(1080p)(2020) = CSFD 78% Názov:Des (S01)(CZ)(HDTV-Rip)(1080p)(2020) = CSFD 78% Hodnocení:N/A Stiahnut
    Pozriet Online
    Kategória:Seriál Velikost:6.8 GB BitTorrent klient
    Pridaný: Súbory:
    Skontrolován:2022-09-27 Peerov:23 (Seed: 23, Leech: 0)
    Zaner:Drama,Historicky,Krimi Uploader:Uvidis, az ked budes
    VIP
    Kúp nám Pivo 1,10€

    Kúp nám Pivo
    Pridaj do zalozky
    Pridaj do zalozky




    DES (2002)(TVrip HD)



    Video: MKV 1080p
    Jazyk: CZ
    Titulky: Ne


    Obsahuje 3 díly co vyšly

    https://www.csfd.cz/film/909584-des/prehled/

    Krimi / Drama / Historický
    Velká Británie, 2020, 2 h 21 min (Minutáž: 47 min)


    Tvůrci: Lewis Arnold
    Režie: Lewis Arnold
    Předloha: Brian Masters (kniha)
    Scénář: Kelly Jones, Luke Neal
    Kamera: Mark Wolf
    Hudba: Sarah Warne
    Hrají: David Tennant, Daniel Mays, Jason Watkins, Ron Cook, Gerard Horan, Ben Bailey Smith, Barry Ward, Bronagh Waugh, Ross Anderson, Chanel Cresswell
    Produkce: David Meanti
    Střih: Sacha Szwarc
    Zvuk: Neil Collymore, Nikola Medic
    Scénografie: Anna Higginson
    Kostýmy: Tudor George

    Třídílná minisérie Des sleduje jeden z nejnechvalněji proslulých případů v historii britského zločinu, který se točí kolem sériového vraha Dennise Nilsena. Seriál, vyprávěný očima tří mužů – Dennise Nilsena (David Tennant), hlavního vyšetřovatele Petera Jaye (Daniel Mays) a spisovatele Briana Masterse (Jason Watkins) – zkoumá, jaké jsou osobní i profesní důsledky setkání s člověkem jako je Nilsen. Mezi lety 1978 a 1983 zavraždil Nilsen ve svém bytě řadu chlapců a mladých mužů. Pět let následně unikal odhalení. 9. února roku 1983 byl však vrchní inspektor Peter Jay vyslán na Cranley Gardens do domu s číslem popisným 23, aby prozkoumal zbytky lidské tkáně a kostí v ucpané kanalizaci. Právě tehdy si policie uvědomila, že má co dočinění s masovým vrahem. (HBO Europe)


     


    Formát                                   : Matroska
    Format version                           : Version 2
    Velikost souboru                         : 2,26 GiB
    Duration                                 : 46 min 30 s
    Overall bit rate mode                    : Constant
    Celkový BitRate                          : 6 944 kb/s
    Použitý software                         : Lavf54.63.104
    Enkódoval                                : Lavf54.63.104

    Video
    ID                                       : 1
    Formát                                   : AVC
    Formát/Info                              : Advanced Video Codec
    Format profile                           : High@L4
    Format settings                          : CABAC / 4 Ref Frames
    Format settings, CABAC                   : Ano
    Format settings, Reference frames        : 4 frames
    Format settings, GOP                     : M=1, N=33
    Codec ID                                 : V_MPEG4/ISO/AVC
    Duration                                 : 46 min 30 s
    Bit rate mode                            : Constant
    Bit rate                                 : 6 748 kb/s
    Šířka                                    : 1 920pixely
    Výška                                    : 1 080pixely
    Poměr stran                              : 16:9
    Frame rate mode                          : Constant
    Frame rate                               : 25,000 FPS
    Color space                              : YUV
    Chroma subsampling                       : 4:2:0
    Bit depth                                : 8 bits
    Scan type                                : Interlaced
    Scan type, store method                  : Separated fields
    Scan order                               : Top Field First
    Bits/(Pixel*Frame)                       : 0.130
    Stream size                              : 2,15 GiB (95%)
    Default                                  : Ne
    Forced                                   : Ne

    Audio
    ID                                       : 2
    Formát                                   : MPEG Audio
    Format version                           : Version 1
    Format profile                           : Layer 2
    Codec ID                                 : A_MPEG/L2
    Codec ID/Hint                            : MP2
    Duration                                 : 46 min 30 s
    Bit rate mode                            : Constant
    Bit rate                                 : 192 kb/s
    Kanál(y)                                 : 2 kanály
    Sampling rate                            : 48,0 kHz
    Compression mode                         : Lossy
    Stream size                              : 63,9 MiB (3%)
    Jazyk                                    : Czech
    Default                                  : Ano
    Forced                                   : Ne














    Mirou, nguuenvantok, wokap, doboska, paulusek, Feeheerov, vojta229, betynka, tibie, yardaz, šlosy, andre66, Joseph82, SFINX13, gubes, Jablonka,

    + Pridaj vlastnu verziu tohto torrentu +


    Upozornenie:
    Ziadny zo zobrazených súborov sa nenachádza na tomto serveri. Server slúzi len k síreniu vlastnorucne vytvorených aplikácií, videí, hudby ai. Autori stránok nenesú ziadnu zodpovednost za zverejnené odkazy, komentáre a obsah súborov. Vsetky komentáre, odkazy, súbory ktoré by svojou povahou mohli byt v rozpore zo zákonmi sem vkladáte na vlastnú zodpovednost. Autori stránok si vyhradzujú právo cenzúry odkazov, komentárov príp. súborov, ktoré by svojou povahou mohli byt v rozpore zo zákonmi a dobrými mravmi. Dodrzujte pravidlá!


    No comments...


    Back

    Na serveru se nenalézají zádne soubory. Za odkazy jsou výhradně zodpovědní uzivatelé a návstěvníci tohoto trackeru. Administrátor není zodpovědný za pridaný obsah ani za skody zpusobené uzivateli. Nesmíte pouzívat tuto webovou stránku pro distribuovaní nebo download zádného materiálu pokud nemáte povolení od príslusného vlastníka práv. Uzivatelé jsou zodpovědní za dodrzování těchto pravidel a podmínek. Owner má právo kdykoliv změnit pravidla tohoto trackeru.

    [ Script trval: 0.094 sec. ] - [ GZIP: enabled ]
    Je zhruba 15:57
    memcache

    TOPlist