Tvoj účet nieje VIP.
Preto sú tvoje funkcie a možnosti značne obmedzené.
Pre aktiváciu VIP klikni sem.

Divergence / Divergent (2014)(CZ) = CSFD 64% | SkTorrent.eu

Cz-SkTorrent open Tracker, na volné zdielanie súborov. Pridajte sa k nasej komunite a získajte pristup k tisícom torrentov.

  • vysoká rýchlost
  • úplne zdarma
  • prevazne Slovenska a Ceska scena
  • ste tu s nami uz 5 rokov - Dakujeme
  • Vitaj Guest (Login) Ako stahovat
    torrenty?
    Torrenty:
    v1 textová
    v2 obrázková
    v3 online filmy
    Ako sa stat
    Uploaderom
    Online
    Filmy
    Forum
    Pravidlá
    BitTorrent
    klient
    pruzinky
    Meno: Heslo:
    Zaregistrovat
    Po zaregistrovaní mozte volne stahovat
    Zabudol som heslo

    Torrent's details
    Divergence / Divergent (2014)(CZ) = CSFD 64% Názov:Divergence / Divergent (2014)(CZ) = CSFD 64% Hodnocení: Stiahnut
    Pozriet Online
    Kategória:Filmy CZ/SK dabing Velikost:1.1 GB BitTorrent klient
    Pridaný: Súbory:
    Skontrolován:2014-12-09 Peerov:1 (Seed: 1, Leech: 0)
    Zaner:Akcni,Dobrodruzny,Romanticky,Sci-Fi Uploader:Uvidis, az ked budes
    VIP
    Kúp nám Pivo 1,10€

    Kúp nám Pivo
    Podporte nas na Facebooku !
    Pridaj do zalozky
    Pridaj do zalozky






    ...







    Jazyk: Český
    Titulky: Ne
    Rok vydání: 2014
    Délka: 139 min
    Žánr: Sci-Fi / Akční / Dobrodružný / Romantický
    http://www.csfd.cz/film/328760-divergence/



    Mediainfo
    Format: AVI
    Format/Info: Audio Video Interleave
    File size: 1.11 GiB
    Duration: 2h 19mn
    Overall bit rate: 1 137 Kbps
    Writing application: VirtualDubMod 1.5.10.2 (build 2540/release)
    Writing library: VirtualDubMod build 2540/release

    Video
    ID: 0
    Format: MPEG-4 Visual
    Format profile: Advanced Simple@L5
    Format settings, BVOP: 1
    Format settings, QPel: No
    Format settings, GMC: No warppoints
    Format settings, Matrix: Default (MPEG)
    Codec ID: XVID
    Codec ID/Hint: XviD
    Duration: 2h 19mn
    Bit rate: 1 000 Kbps
    Width: 640 pixels
    Height: 272 pixels
    Display aspect ratio: 2.35:1
    Frame rate: 23.976 fps
    Color space: YUV
    Chroma subsampling: 4:2:0
    Bit depth: 8 bits
    Scan type: Progressive
    Compression mode: Lossy
    Bits/(Pixel*Frame): 0.240
    Stream size: 999 MiB (88%)
    Writing library: XviD 1.2.1 (UTC 2008-12-04)

    Audio
    ID: 1
    Format: MPEG Audio
    Format version: Version 1
    Format profile: Layer 3
    Mode: Joint stereo
    Codec ID: 55
    Codec ID/Hint: MP3
    Duration: 2h 19mn
    Bit rate mode: Constant
    Bit rate: 128 Kbps
    Channel(s): 2 channels
    Sampling rate: 48.0 KHz
    Compression mode: Lossy
    Stream size: 128 MiB (11%)
    Alignment: Aligned on interleaves
    Interleave, duration: 42 ms (1.00 video frame)
    Interleave, preload duration: 504 ms
    Writing library: LAME3.99r
    Encoding settings: -m j -V 4 -q 2 -lowpass 17 -b 128



    Popis filmu
    Ve světě budoucnosti jsou lidé rozděleni na pět frakcí podle svých dobrých vlastností. Každá vyznává jiné hodnoty, společně ale vytvářejí harmonický celek. Jenže hlavní hrdinka Tris do žádné škatulky nezapadá a test ukáže, že je divergentní - nebo-li má předpoklady a talent pro více frakcí. Systém okamžitě ukáže svou odvrácenou tvář a z Tris se stává lovná zvěř. Kdo se liší, znamená hrozbu. Hrozbu je třeba zlikvidovat












    + Pridaj vlastnu verziu tohto torrentu +


    Upozornenie:
    Ziadny zo zobrazených súborov sa nenachádza na tomto serveri. Server slúzi len k síreniu vlastnorucne vytvorených aplikácií, videí, hudby ai. Autori stránok nenesú ziadnu zodpovednost za zverejnené odkazy, komentáre a obsah súborov. Vsetky komentáre, odkazy, súbory ktoré by svojou povahou mohli byt v rozpore zo zákonmi sem vkladáte na vlastnú zodpovednost. Autori stránok si vyhradzujú právo cenzúry odkazov, komentárov príp. súborov, ktoré by svojou povahou mohli byt v rozpore zo zákonmi a dobrými mravmi. Dodrzujte pravidlá!





    0
    dinero399
    Ratio 0



    27/12/2014 12.13.08
    ahoj

    0
    pakalcz
    Ratio 0.39

    Clen

    24/11/2014 17.32.13
    Moc děkuji


    Back

    Na serveru se nenalézají zádne soubory. Za odkazy jsou výhradně zodpovědní uzivatelé a návstěvníci tohoto trackeru. Administrátor není zodpovědný za pridaný obsah ani za skody zpusobené uzivateli. Rozsirovat stránku nebo její obsah bez souhlasu ownera je zakázano. Nesmíte pouzívat tuto webovou stránku pro distribuovaní nebo download zádného materiálu pokud nemáte povolení od príslusného vlastníka práv. Uzivatelé jsou zodpovědní za dodrzování těchto pravidel a podmínek. Owner má právo kdykoliv změnit pravidla tohoto trackeru.

    [ Script trval: 0.074 sec. ] - [ GZIP: enabled ]
    BtiTracker (1.4.8) by Btiteam
    Je zhruba 01:18

    TOPlist