Tvoj účet nieje VIP.
Preto sú tvoje funkcie a možnosti značne obmedzené.
Pre aktiváciu VIP klikni sem.

Dragon's Dogma / Draci prokleti (S01)(2020)(FHD)(1080p)(x264)(WebDl)(EN-DE-JP)(CZ tit+MultiSUB) = CSFD 65% | SkTorrent.eu

Cz-SkTorrent open Tracker, na volné zdieľanie súborov. Pridajte sa k našej komunite a získajte prístup k tisícom torrentov.

  • vysoká rýchlosť
  • úplne zdarma
  • prevažne Slovenská a Česká scéna
  • ste tu s nami už 10 rokov - Ďakujeme
  • Vitaj Guest (Login) Ako stahovat
    torrenty?
    Torrenty:
    v1 textová
    v2 obrázková
    Ako sa stat
    Uploaderom
    Online
    Filmy
    Forum
    Pravidlá
    SkTSocial
    BitTorrent
    klient
    Meno: Heslo:
    Zaregistrovat
    Po zaregistrovaní mozte volne stahovat
    Zabudol som heslo

    Dragon's Dogma / Draci prokleti  (S01)(2020)(FHD)(1080p)(x264)(WebDl)(EN-DE-JP)(CZ tit+MultiSUB) = CSFD 65% Názov:Dragon's Dogma / Draci prokleti (S01)(2020)(FHD)(1080p)(x264)(WebDl)(EN-DE-JP)(CZ tit+MultiSUB) = CSFD 65% Hodnocení:N/A Stiahnut
    Pozriet Online
    Kategória:Seriál Velikost:4.5 GB BitTorrent klient
    Pridaný: Súbory:
    Skontrolován:2022-11-26 Peerov:3 (Seed: 3, Leech: 0)
    Zaner:Animovany,Fantasy Uploader:Uvidis, az ked budes
    VIP
    Kúp nám Pivo 1,10€

    Kúp nám Pivo

    Pridaj do zalozky
    Pridaj do zalozky











    Movie Name: Dragon's Dogma (2020)(S01)(Complete)
    IMDb Rating: 6.3/10

    Quality: 1080p (WebDL)
    Language: AAC 2.0 English , Japanese , Germany
    Subtitles: Multi
    Director: Šin'ja Sugai
    Genres: Action | Animation | Adventure


    Ethan sets out to vanquish the Dragon that took his heart, but with every demon he battles, he loses more of his humanity.






    Format                                   : Matroska
    Format version                           : Version 4
    File size                                : 643 MiB
    Duration                                 : 26 min 20 s
    Overall bit rate mode                    : Variable
    Overall bit rate                         : 3 413 kb/s
    Movie name                               : Hněv
    Encoded date                             : UTC 2022-11-20 18:35:52
    Writing application                      : mkvmerge v68.0.0 ('The Curtain') 64-bit
    Writing library                          : libebml v1.4.2 + libmatroska v1.6.4

    Video
    ID                                       : 1
    Format                                   : AVC
    Format/Info                              : Advanced Video Codec
    Format profile                           : High@L4
    Format settings                          : CABAC / 4 Ref Frames
    Format settings, CABAC                   : Yes
    Format settings, Reference frames        : 4 frames
    Codec ID                                 : V_MPEG4/ISO/AVC
    Duration                                 : 26 min 19 s
    Bit rate mode                            : Variable
    Bit rate                                 : 1 490 kb/s
    Maximum bit rate                         : 20.0 Mb/s
    Width                                    : 1 920 pixels
    Height                                   : 1 080 pixels
    Display aspect ratio                     : 16:9
    Frame rate mode                          : Constant
    Frame rate                               : 23.976 (24000/1001) FPS
    Color space                              : YUV
    Chroma subsampling                       : 4:2:0
    Bit depth                                : 8 bits
    Scan type                                : Progressive
    Bits/(Pixel*Frame)                       : 0.030
    Stream size                              : 281 MiB (44%)
    Writing library                          : x264 core 148 r2727 7d026e8
    Encoding settings                        : cabac=1 / ref=4 / deblock=1:0:0 / analyse=0x3:0x111 / me=umh / subme=10 / psy=1 / psy_rd=1.00:0.00 / mixed_ref=1 / me_range=120 / chroma_me=1 / trellis=2 / 8x8dct=1 / cqm=0 / deadzone=21,11 / fast_pskip=1 / chroma_qp_offset=-2 / threads=8 / lookahead_threads=2 / sliced_threads=0 / nr=0 / decimate=1 / interlaced=0 / bluray_compat=0 / stitchable=1 / constrained_intra=0 / bframes=16 / b_pyramid=2 / b_adapt=2 / b_bias=0 / direct=3 / weightb=1 / open_gop=0 / weightp=2 / keyint=240 / keyint_min=121 / scenecut=0 / intra_refresh=0 / rc_lookahead=240 / rc=crf / mbtree=1 / crf=20.0 / qcomp=0.50 / qpmin=6 / qpmax=51 / qpstep=4 / vbv_maxrate=20000 / vbv_bufsize=25000 / crf_max=0.0 / nal_hrd=vbr / filler=0 / ip_ratio=1.40 / aq=1:0.80
    Default                                  : Yes
    Forced                                   : No

    Audio #1
    ID                                       : 2
    Format                                   : E-AC-3
    Format/Info                              : Enhanced AC-3
    Commercial name                          : Dolby Digital Plus
    Codec ID                                 : A_EAC3
    Duration                                 : 26 min 20 s
    Bit rate mode                            : Constant
    Bit rate                                 : 640 kb/s
    Channel(s)                               : 6 channels
    Channel layout                           : L R C LFE Ls Rs
    Sampling rate                            : 48.0 kHz
    Frame rate                               : 31.250 FPS (1536 SPF)
    Compression mode                         : Lossy
    Stream size                              : 121 MiB (19%)
    Language                                 : German
    Service kind                             : Complete Main
    Default                                  : No
    Forced                                   : No

    Audio #2
    ID                                       : 3
    Format                                   : E-AC-3
    Format/Info                              : Enhanced AC-3
    Commercial name                          : Dolby Digital Plus
    Codec ID                                 : A_EAC3
    Duration                                 : 26 min 20 s
    Bit rate mode                            : Constant
    Bit rate                                 : 640 kb/s
    Channel(s)                               : 6 channels
    Channel layout                           : L R C LFE Ls Rs
    Sampling rate                            : 48.0 kHz
    Frame rate                               : 31.250 FPS (1536 SPF)
    Compression mode                         : Lossy
    Stream size                              : 121 MiB (19%)
    Language                                 : English
    Service kind                             : Complete Main
    Default                                  : No
    Forced                                   : No

    Audio #3
    ID                                       : 4
    Format                                   : E-AC-3
    Format/Info                              : Enhanced AC-3
    Commercial name                          : Dolby Digital Plus
    Codec ID                                 : A_EAC3
    Duration                                 : 26 min 20 s
    Bit rate mode                            : Constant
    Bit rate                                 : 640 kb/s
    Channel(s)                               : 6 channels
    Channel layout                           : L R C LFE Ls Rs
    Sampling rate                            : 48.0 kHz
    Frame rate                               : 31.250 FPS (1536 SPF)
    Compression mode                         : Lossy
    Stream size                              : 121 MiB (19%)
    Language                                 : Japanese
    Service kind                             : Complete Main
    Default                                  : No
    Forced                                   : No

    Text #1
    ID                                       : 5
    Format                                   : UTF-8
    Codec ID                                 : S_TEXT/UTF8
    Codec ID/Info                            : UTF-8 Plain Text
    Duration                                 : 25 min 20 s
    Bit rate                                 : 34 b/s
    Frame rate                               : 0.165 FPS
    Count of elements                        : 251
    Stream size                              : 6.33 KiB (0%)
    Language                                 : Czech
    Default                                  : Yes
    Forced                                   : No

    Text #2
    ID                                       : 6
    Format                                   : UTF-8
    Codec ID                                 : S_TEXT/UTF8
    Codec ID/Info                            : UTF-8 Plain Text
    Duration                                 : 25 min 20 s
    Bit rate                                 : 35 b/s
    Frame rate                               : 0.162 FPS
    Count of elements                        : 247
    Stream size                              : 6.61 KiB (0%)
    Language                                 : German
    Default                                  : Yes
    Forced                                   : No

    Text #3
    ID                                       : 7
    Format                                   : UTF-8
    Codec ID                                 : S_TEXT/UTF8
    Codec ID/Info                            : UTF-8 Plain Text
    Duration                                 : 25 min 20 s
    Bit rate                                 : 0 b/s
    Frame rate                               : 0.003 FPS
    Count of elements                        : 4
    Stream size                              : 102 Bytes (0%)
    Language                                 : German
    Default                                  : Yes
    Forced                                   : No

    Text #4
    ID                                       : 8
    Format                                   : UTF-8
    Codec ID                                 : S_TEXT/UTF8
    Codec ID/Info                            : UTF-8 Plain Text
    Duration                                 : 23 min 18 s
    Bit rate                                 : 38 b/s
    Frame rate                               : 0.178 FPS
    Count of elements                        : 249
    Stream size                              : 6.56 KiB (0%)
    Language                                 : English
    Default                                  : Yes
    Forced                                   : No

    Text #5
    ID                                       : 9
    Format                                   : UTF-8
    Codec ID                                 : S_TEXT/UTF8
    Codec ID/Info                            : UTF-8 Plain Text
    Duration                                 : 23 min 46 s
    Bit rate                                 : 54 b/s
    Frame rate                               : 0.265 FPS
    Count of elements                        : 378
    Stream size                              : 9.42 KiB (0%)
    Language                                 : English
    Default                                  : Yes
    Forced                                   : No

    Text #6
    ID                                       : 10
    Format                                   : UTF-8
    Codec ID                                 : S_TEXT/UTF8
    Codec ID/Info                            : UTF-8 Plain Text
    Duration                                 : 25 min 20 s
    Bit rate                                 : 31 b/s
    Frame rate                               : 0.164 FPS
    Count of elements                        : 250
    Stream size                              : 5.90 KiB (0%)
    Language                                 : Hungarian
    Default                                  : Yes
    Forced                                   : No

    Text #7
    ID                                       : 11
    Format                                   : UTF-8
    Codec ID                                 : S_TEXT/UTF8
    Codec ID/Info                            : UTF-8 Plain Text
    Duration                                 : 25 min 19 s
    Bit rate                                 : 72 b/s
    Frame rate                               : 0.255 FPS
    Count of elements                        : 387
    Stream size                              : 13.5 KiB (0%)
    Language                                 : Japanese
    Default                                  : Yes
    Forced                                   : No

    Text #8
    ID                                       : 12
    Format                                   : UTF-8
    Codec ID                                 : S_TEXT/UTF8
    Codec ID/Info                            : UTF-8 Plain Text
    Duration                                 : 25 min 20 s
    Bit rate                                 : 0 b/s
    Frame rate                               : 0.003 FPS
    Count of elements                        : 4
    Stream size                              : 153 Bytes (0%)
    Language                                 : Japanese
    Default                                  : Yes
    Forced                                   : No

    Text #9
    ID                                       : 13
    Format                                   : UTF-8
    Codec ID                                 : S_TEXT/UTF8
    Codec ID/Info                            : UTF-8 Plain Text
    Duration                                 : 25 min 20 s
    Bit rate                                 : 31 b/s
    Frame rate                               : 0.166 FPS
    Count of elements                        : 252
    Stream size                              : 5.77 KiB (0%)
    Language                                 : Polish
    Default                                  : Yes
    Forced                                   : No











    pohee,

    + Pridaj vlastnu verziu tohto torrentu +


    Upozornenie:
    Ziadny zo zobrazených súborov sa nenachádza na tomto serveri. Server slúzi len k síreniu vlastnorucne vytvorených aplikácií, videí, hudby ai. Autori stránok nenesú ziadnu zodpovednost za zverejnené odkazy, komentáre a obsah súborov. Vsetky komentáre, odkazy, súbory ktoré by svojou povahou mohli byt v rozpore zo zákonmi sem vkladáte na vlastnú zodpovednost. Autori stránok si vyhradzujú právo cenzúry odkazov, komentárov príp. súborov, ktoré by svojou povahou mohli byt v rozpore zo zákonmi a dobrými mravmi. Dodrzujte pravidlá!


    No comments...


    Back

    Na serveru se nenalézají zádne soubory. Za odkazy jsou výhradně zodpovědní uzivatelé a návstěvníci tohoto trackeru. Administrátor není zodpovědný za pridaný obsah ani za skody zpusobené uzivateli. Nesmíte pouzívat tuto webovou stránku pro distribuovaní nebo download zádného materiálu pokud nemáte povolení od príslusného vlastníka práv. Uzivatelé jsou zodpovědní za dodrzování těchto pravidel a podmínek. Owner má právo kdykoliv změnit pravidla tohoto trackeru.

    [ Script trval: 0.089 sec. ] - [ GZIP: enabled ]
    Je zhruba 08:11
    memcache

    TOPlist