Tvoj účet nieje VIP.
Preto sú tvoje funkcie a možnosti značne obmedzené.
Pre aktiváciu VIP klikni sem.

| SkTorrent.eu

Cz-SkTorrent open Tracker, na volné zdielanie súborov. Pridajte sa k nasej komunite a získajte pristup k tisícom torrentov.

  • vysoká rýchlost
  • úplne zdarma
  • prevazne Slovenska a Ceska scena
  • ste tu s nami uz 5 rokov - Dakujeme
  • Vitaj Guest (Login) Ako stahovat
    torrenty?
    Torrenty:
    v1 textová
    v2 obrázková
    v3 online filmy
    Ako sa stat
    Uploaderom
    Online
    Filmy
    Forum
    Pravidlá
    BitTorrent
    klient
    Booking.com
    Meno: Heslo:
    Zaregistrovat
    Po zaregistrovaní mozte volne stahovat
    Zabudol som heslo

    Torrent's details
    Drive Angry / Smrtonosná jizda (2011)(CZ) = CSFD 54% Názov:Drive Angry / Smrtonosná jizda (2011)(CZ) = CSFD 54% Hodnocení: Stiahnut
    Pozriet Online
    Kategória:Filmy CZ/SK dabing Velikost:1.7 GB BitTorrent klient
    Pridaný: Súbory:
    Skontrolován:2014-02-12 Peerov:0 (Seed: 0, Leech: 0)
    Zaner:Akcni,Fantasy,Krimi,Thriller Uploader:Uvidis, az ked budes
    VIP
    Kúp nám Pivo 1,10€

    Kúp nám Pivo
    Podporte nas na Facebooku !
    Pridaj do zalozky
    Pridaj do zalozky





    Jazyk: CZ
    Rok vydání: 2011
    Odkaz na CSFD: http://www.csfd.cz/film/268617-drive-angry/  
    Délka: 1 h.  44 min.
    Žánr: Thriller / Akční / Fantasy

    Režie: Patrick Lussier
    Hudba: Michael Wandmacher

    Hrají:
    (Nicolas Cage - ), Amber Heard, William Fichtner, Charlotte Ross, Billy Burke, David Morse, Tom Atkins

    Popis:
    Milton, otrlý zločinec, uprchl z pekla za svou poslední šancí na vykoupení. V úmyslu má zastavit zločinecký kult, který zavraždil jeho dceru. Má tři dny na to, aby jim překazil obětování miminka jeho dcery při úplňku. Připojí se k němu mladá sexy číšnice, která nabídne Miltonovi své nadupané auto po ex-příteli.Ti dva jsou na celému kultu na stopě a sami přitom mají v patách policii. Horší ale je, že Miltona sleduje také záhadný zabiják, kterého poslal sám ďábel, aby Miltona přivedl zpět do pekla. Hnán nejsilnější motivací musí překročit Milton hranice lidských možností, aby pomstil smrt své dcery dřív, než jeho poslední šance na vykoupení zmizí.



    Screen:

    Media inforive.Angry.2011.480p.BRRip.XviD.AC3.CZ-LEADERs.avi
    Format: AVI
    Format/Info: Audio Video Interleave
    File size: 1.75 GiB
    Duration: 1h 44mn
    Overall bit rate: 2 393 Kbps
    Writing application: VirtualDubMod 1.5.10.2 (build 2540/release)
    Writing library: VirtualDubMod build 2540/release

    Video
    ID: 0
    Format: MPEG-4 Visual
    Format profile: Advanced Simple@L5
    Format settings, BVOP: 1
    Format settings, QPel: No
    Format settings, GMC: No warppoints
    Format settings, Matrix: Default (H.263)
    Codec ID: XVID
    Codec ID/Hint: XviD
    Duration: 1h 44mn
    Bit rate: 2 000 Kbps
    Width: 720 pixels
    Height: 400 pixels
    Display aspect ratio: 16:9
    Frame rate: 23.976 fps
    Color space: YUV
    Chroma subsampling: 4:2:0
    Bit depth: 8 bits
    Scan type: Progressive
    Compression mode: Lossy
    Bits/(Pixel*Frame): 0.290
    Stream size: 1.46 GiB (84%)
    Writing library: XviD 1.2.1 (UTC 2008-12-04)

    Audio
    ID: 1
    Format: AC-3
    Format/Info: Audio Coding 3
    Mode extension: CM (complete main)
    Codec ID: 2000
    Duration: 1h 44mn
    Bit rate mode: Constant
    Bit rate: 384 Kbps
    Channel(s): 6 channels
    Channel positions: Front: L C R, Side: L R, LFE
    Sampling rate: 48.0 KHz
    Bit depth: 16 bits
    Compression mode: Lossy
    Stream size: 287 MiB (16%)
    Alignment: Split accross interleaves
    Interleave, duration: 42 ms (1.00 video frame)
    Interleave, preload duration: 500 ms

    Trailer:







    + Pridaj vlastnu verziu tohto torrentu +


    Upozornenie:
    Ziadny zo zobrazených súborov sa nenachádza na tomto serveri. Server slúzi len k síreniu vlastnorucne vytvorených aplikácií, videí, hudby ai. Autori stránok nenesú ziadnu zodpovednost za zverejnené odkazy, komentáre a obsah súborov. Vsetky komentáre, odkazy, súbory ktoré by svojou povahou mohli byt v rozpore zo zákonmi sem vkladáte na vlastnú zodpovednost. Autori stránok si vyhradzujú právo cenzúry odkazov, komentárov príp. súborov, ktoré by svojou povahou mohli byt v rozpore zo zákonmi a dobrými mravmi. Dodrzujte pravidlá!


    No comments...


    Back

    Na serveru se nenalézají zádne soubory. Za odkazy jsou výhradně zodpovědní uzivatelé a návstěvníci tohoto trackeru. Administrátor není zodpovědný za pridaný obsah ani za skody zpusobené uzivateli. Rozsirovat stránku nebo její obsah bez souhlasu ownera je zakázano. Nesmíte pouzívat tuto webovou stránku pro distribuovaní nebo download zádného materiálu pokud nemáte povolení od príslusného vlastníka práv. Uzivatelé jsou zodpovědní za dodrzování těchto pravidel a podmínek. Owner má právo kdykoliv změnit pravidla tohoto trackeru.

    [ Script trval: 0.028 sec. ] - [ GZIP: enabled ]
    BtiTracker (1.4.8) by Btiteam
    Je zhruba 02:45

    TOPlist