Tvoj účet nieje VIP.
Preto sú tvoje funkcie a možnosti značne obmedzené.
Pre aktiváciu VIP klikni sem.

Drtivy dopad / Deep Impact (1998)(1080p)(EN/CZ) = CSFD 64% | SkTorrent.eu

Cz-SkTorrent open Tracker, na volné zdielanie súborov. Pridajte sa k nasej komunite a získajte pristup k tisícom torrentov.

  • vysoká rýchlost
  • úplne zdarma
  • prevazne Slovenska a Ceska scena
  • ste tu s nami uz 5 rokov - Dakujeme
  • Vitaj Guest (Login) Ako stahovat
    torrenty?
    Torrenty:
    v1 textová
    v2 obrázková
    v3 online filmy
    Ako sa stat
    Uploaderom
    Online
    Filmy
    Forum
    Pravidlá
    BitTorrent
    klient
    Meno: Heslo:
    Zaregistrovat
    Po zaregistrovaní mozte volne stahovat
    Zabudol som heslo

    Torrent's details
    Drtivy dopad / Deep Impact (1998)(1080p)(EN/CZ) = CSFD 64% Názov:Drtivy dopad / Deep Impact (1998)(1080p)(EN/CZ) = CSFD 64% Hodnocení: Stiahnut
    Pozriet Online
    Kategória:HD Filmy Velikost:12.0 GB BitTorrent klient
    Pridaný: Súbory:
    Skontrolován:2021-06-09 Peerov:11 (Seed: 11, Leech: 0)
    Zaner:Akcni,Drama,Katastroficky,Sci-Fi Uploader:Uvidis, az ked budes
    VIP
    Kúp nám Pivo 1,10€

    Kúp nám Pivo
    Podporte nas na Facebooku !
    Pridaj do zalozky
    Pridaj do zalozky








    Drtivy dopad - Deep Impact (1998)
    BluRay rip CZ a púvodní dabing + CZ tit

                   










    Katastrofický / Drama / Akční / Sci-Fi / Thriller
    USA, 1998, 120 min
    Režie: Mimi Leder
    Scénář: Bruce Joel Rubin, Michael Tolkin
    Kamera: Dietrich Lohmann
    Hudba: James Horner
    Hrají: Robert Duvall, Téa Leoni, Elijah Wood, Vanessa Redgrave, (Morgan Freeman - ), Maximilian Schell, James Cromwell, Ron Eldard, Jon Favreau





    K Zemi se blíží Wolf-Biedermanova kometa, větší než Mount Everest. Ke srážce, jež bude znamenat konec planety Země, má dojít za necelý rok. Zatímco se chystá vesmírná expedice, jež se má pokusit rozstřílet kometu jadernými zbraněmi, na Zemi se rychle chystají podzemní kryty, jakési archy záchrany.







    Formát                                   : Matroska
    Format version                           : Version 4
    Velikost souboru                         : 12,0 GiB
    Duration                                 : 2 h 1 min
    Overall bit rate mode                    : Variable
    Celkový BitRate                          : 14,2 Mb/s
    Encoded date                             : UTC 2018-11-28 10:21:48
    Použitý software                         : mkvmerge v7.8.0 ('River Man') 64bit built on Mar 27 2015 16:31:37
    Enkódoval                                : libebml v1.3.1 + libmatroska v1.4.2

    Video
    ID                                       : 1
    Formát                                   : AVC
    Formát/Info                              : Advanced Video Codec
    Format profile                           : High@L4.1
    Format settings                          : CABAC / 4 Ref Frames
    Format settings, CABAC                   : Ano
    Format settings, Reference frames        : 4 frames
    Codec ID                                 : V_MPEG4/ISO/AVC
    Duration                                 : 2 h 1 min
    Bit rate mode                            : Variable
    Bit rate                                 : 12,1 Mb/s
    Maximum bit rate                         : 40,0 Mb/s
    Šířka                                    : 1 920pixely
    Výška                                    : 1 080pixely
    Poměr stran                              : 16:9
    Frame rate mode                          : Constant
    Frame rate                               : 23,976 (24000/1001) FPS
    Color space                              : YUV
    Chroma subsampling                       : 4:2:0
    Bit depth                                : 8 bits
    Scan type                                : Progressive
    Bits/(Pixel*Frame)                       : 0.242
    Stream size                              : 10,2 GiB (85%)
    Default                                  : Ano
    Forced                                   : Ne

    Audio #1
    ID                                       : 2
    Formát                                   : AC-3
    Formát/Info                              : Audio Coding 3
    Commercial name                          : Dolby Digital
    Codec ID                                 : A_AC3
    Duration                                 : 2 h 1 min
    Bit rate mode                            : Constant
    Bit rate                                 : 640 kb/s
    Kanál(y)                                 : 6 kanály
    Channel layout                           : L R C LFE Ls Rs
    Sampling rate                            : 48,0 kHz
    Frame rate                               : 31,250 FPS (1536 SPF)
    Compression mode                         : Lossy
    Stream size                              : 555 MiB (4%)
    Jazyk                                    : Czech
    Service kind                             : Complete Main
    Default                                  : Ano
    Forced                                   : Ne

    Audio #2
    ID                                       : 3
    Formát                                   : DTS
    Formát/Info                              : Digital Theater Systems
    Codec ID                                 : A_DTS
    Duration                                 : 2 h 1 min
    Bit rate mode                            : Constant
    Bit rate                                 : 1 510 kb/s
    Kanál(y)                                 : 6 kanály
    Channel layout                           : C L R Ls Rs LFE
    Sampling rate                            : 48,0 kHz
    Frame rate                               : 93,750 FPS (512 SPF)
    Bit depth                                : 24 bits
    Compression mode                         : Lossy
    Stream size                              : 1,28 GiB (11%)
    Jazyk                                    : English
    Default                                  : Ne
    Forced                                   : Ne

    Text #1
    ID                                       : 4
    Formát                                   : PGS
    Muxing mode                              : zlib
    Codec ID                                 : S_HDMV/PGS
    Codec ID/Info                            : Picture based subtitle format used on BDs/HD-DVDs
    Duration                                 : 1 h 51 min
    Bit rate                                 : 23,8 kb/s
    Count of elements                        : 3486
    Stream size                              : 19,0 MiB (0%)
    Jazyk                                    : Czech
    Default                                  : Ne
    Forced                                   : Ne

    Text #2
    ID                                       : 5
    Formát                                   : UTF-8
    Codec ID                                 : S_TEXT/UTF8
    Codec ID/Info                            : UTF-8 Plain Text
    Duration                                 : 1 h 51 min
    Bit rate                                 : 57 b/s
    Count of elements                        : 1743
    Stream size                              : 46,9 KiB (0%)
    Jazyk                                    : Czech
    Default                                  : Ne
    Forced                                   : Ne











    ONLINE











    mattess10, Manny54, tomasdeen, lalik, Jablonka,

    + Pridaj vlastnu verziu tohto torrentu +


    Upozornenie:
    Ziadny zo zobrazených súborov sa nenachádza na tomto serveri. Server slúzi len k síreniu vlastnorucne vytvorených aplikácií, videí, hudby ai. Autori stránok nenesú ziadnu zodpovednost za zverejnené odkazy, komentáre a obsah súborov. Vsetky komentáre, odkazy, súbory ktoré by svojou povahou mohli byt v rozpore zo zákonmi sem vkladáte na vlastnú zodpovednost. Autori stránok si vyhradzujú právo cenzúry odkazov, komentárov príp. súborov, ktoré by svojou povahou mohli byt v rozpore zo zákonmi a dobrými mravmi. Dodrzujte pravidlá!





    0
    thesaint
    Ratio 23.18

    VIP

    09/06/2021 19.12.29
    nazdar kolega
    mam uz nachystanu 4K verziu... ci budes ju davat ty?


    --------------
    >> 09/06/2021 19.08.05
    UPLOADER: Na UHD si specialista TY bro..  na mna zustavaji len FullHD


    Back

    Na serveru se nenalézají zádne soubory. Za odkazy jsou výhradně zodpovědní uzivatelé a návstěvníci tohoto trackeru. Administrátor není zodpovědný za pridaný obsah ani za skody zpusobené uzivateli. Rozsirovat stránku nebo její obsah bez souhlasu ownera je zakázano. Nesmíte pouzívat tuto webovou stránku pro distribuovaní nebo download zádného materiálu pokud nemáte povolení od príslusného vlastníka práv. Uzivatelé jsou zodpovědní za dodrzování těchto pravidel a podmínek. Owner má právo kdykoliv změnit pravidla tohoto trackeru.

    [ Script trval: 0.036 sec. ] - [ GZIP: enabled ]
    BtiTracker (1.4.8) by Btiteam
    Je zhruba 00:07

    TOPlist