Tvoj účet nieje VIP.
Preto sú tvoje funkcie a možnosti značne obmedzené.
Pre aktiváciu VIP klikni sem.

Drtivy dopad / Deep Impact (1998)(CZ/EN)(2160p 4K HEVC) = CSFD 64% | SkTorrent.eu

Cz-SkTorrent open Tracker, na volné zdielanie súborov. Pridajte sa k nasej komunite a získajte pristup k tisícom torrentov.

  • vysoká rýchlost
  • úplne zdarma
  • prevazne Slovenska a Ceska scena
  • ste tu s nami uz 5 rokov - Dakujeme
  • Vitaj Guest (Login) Ako stahovat
    torrenty?
    Torrenty:
    v1 textová
    v2 obrázková
    v3 online filmy
    Ako sa stat
    Uploaderom
    Online
    Filmy
    Forum
    Pravidlá
    BitTorrent
    klient
    Meno: Heslo:
    Zaregistrovat
    Po zaregistrovaní mozte volne stahovat
    Zabudol som heslo

    Torrent's details
    Drtivy dopad / Deep Impact  (1998)(CZ/EN)(2160p 4K HEVC) = CSFD 64% Názov:Drtivy dopad / Deep Impact (1998)(CZ/EN)(2160p 4K HEVC) = CSFD 64% Hodnocení: Stiahnut
    Pozriet Online
    Kategória:UHD Filmy Velikost:20.5 GB BitTorrent klient
    Pridaný: Súbory:
    Skontrolován:2021-06-09 Peerov:9 (Seed: 7, Leech: 2)
    Zaner:Akcni,Drama,Katastroficky,Sci-Fi Uploader:Uvidis, az ked budes
    VIP
    Kúp nám Pivo 1,10€

    Kúp nám Pivo
    Podporte nas na Facebooku !
    Pridaj do zalozky
    Pridaj do zalozky






    Drtivy dopad / Deep Impact
    (1998)(CZ/EN) = CSFD 64%

    2160p 4K WebRip - HEVC – 24.2 Mb/s Bitrate verzia











    Video: 2160p 4K WEBRip- HEVC
    Jazyk: CZ 5.1 DD / EN 5.1 TrueHD / EN 5.1 DTS / EN 5.1 AC3
    Titulky: CZ / EN
    Katastroficky / Drama / Akcni / Thriller
    USA 1998
    121 min

    Režie: Mimi Leder
    Scénář: Bruce Joel Rubin, Michael Tolkin
    Kamera: Dietrich Lohmann
    Hudba: James Horner
    Hrají: Robert Duvall, Téa Leoni, Elijah Wood, Vanessa Redgrave, (Morgan Freeman - ), Maximilian Schell, James Cromwell, Ron Eldard, Jon Favreau, Laura Innes, Mary McCormack, Richard Schiff, Leelee Sobieski, Blair Underwood, Dougray Scott, Bruce Weitz, Rya Kihlstedt, Mark Moses, Denise Crosby, Kimberly Huie, Jason Dohring, Concetta Tomei, Mike O'Malley, Kurtwood Smith, Charles Martin Smith, Mic Rodgers, Cynthia Ettinger, Derek de Lint, Merrin Dungey, Betsy Brantley, Alimi Ballard, Don Handfield, Alexandr Balujev, Jennifer Jostyn, Thomas Rosales Jr., Suzy Nakamura, John Ducey, Francis X. McCarthy, Ellen Bry, Leslie Dilley, Tucker Smallwood, Joe Urla, Sommer Garcia, Christopher Darga, Charles Rahi Chun, Charles Dumas, Una Damon, Michael Winters, Hannah Leder, Frank Whiteman

    OBSAH

    K Zemi se blíží Wolf-Biedermanova kometa, větší než Mount Everest. Ke srážce, jež bude znamenat konec planety Země, má dojít za necelý rok. Zatímco se chystá vesmírná expedice, jež se má pokusit rozstřílet kometu jadernými zbraněmi, na Zemi se rychle chystají podzemní kryty, jakési archy záchrany.

    SCREEN



    TRAILER






    Hlavní
    Formát : Matroska
    Format version : Version 4
    Velikost souboru : 20,5 GiB
    Duration : 2 h 1 min
    Overall bit rate mode : Variable
    Celkový BitRate : 24,2 Mb/s
    Encoded date : UTC 2021-06-08 19:06:38
    Použitý software : mkvmerge v31.0.0 ('Dolores In A Shoestand') 64-bit
    Enkódoval : libebml v1.3.6 + libmatroska v1.4.9
    Obal : Yes
    Attachments : cover_land.jpg / small_cover.jpg / small_cover_land.jpg / cover.jpg / cover_land.jpg / small_cover.jpg / small_cover_land.jpg / cover.jpg

    Video
    ID : 1
    Formát : HEVC
    Formát/Info : High Efficiency Video Coding
    Format profile : Main@L5@High
    Codec ID : V_MPEGH/ISO/HEVC
    Duration : 2 h 1 min
    Bit rate : 14,7 Mb/s
    Šířka : 3 840pixely
    Výška : 2 160pixely
    Poměr stran : 16:9
    Frame rate mode : Constant
    Frame rate : 23,976 (24000/1001) FPS
    Color space : YUV
    Chroma subsampling : 4:2:0
    Bit depth : 8 bits
    Bits/(Pixel*Frame) : 0.074
    Stream size : 12,5 GiB (61%)
    Default : Ano
    Forced : Ne
    Color range : Limited
    Color primaries : BT.709
    Transfer characteristics : BT.709
    Matrix coefficients : BT.709

    Audio #1
    ID : 2
    Formát : MLP FBA
    Formát/Info : Meridian Lossless Packing FBA
    Commercial name : Dolby TrueHD
    Codec ID : A_TRUEHD
    Duration : 2 h 1 min
    Bit rate mode : Variable
    Bit rate : 3 963 kb/s
    Maximum bit rate : 5 544 kb/s
    Kanál(y) : 6 kanály
    Channel layout : L R C LFE Ls Rs
    Sampling rate : 48,0 kHz
    Frame rate : 1 200,000 FPS (40 SPF)
    Compression mode : Lossless
    Stream size : 3,35 GiB (16%)
    Jazyk : English
    Default : Ne
    Forced : Ne

    Audio #2
    ID : 3
    Formát : DTS XLL
    Formát/Info : Digital Theater Systems
    Commercial name : DTS-HD Master Audio
    Codec ID : A_DTS
    Duration : 2 h 1 min
    Bit rate mode : Variable
    Bit rate : 4 311 kb/s
    Kanál(y) : 6 kanály
    Channel layout : C L R Ls Rs LFE
    Sampling rate : 48,0 kHz
    Frame rate : 93,750 FPS (512 SPF)
    Bit depth : 24 bits
    Compression mode : Lossless
    Stream size : 3,65 GiB (18%)
    Jazyk : English
    Default : Ne
    Forced : Ne

    Audio #3
    ID : 4
    Formát : AAC LC
    Formát/Info : Advanced Audio Codec Low Complexity
    Codec ID : A_AAC-2
    Duration : 2 h 1 min
    Bit rate : 445 kb/s
    Kanál(y) : 6 kanály
    Channel layout : C L R Ls Rs LFE
    Sampling rate : 48,0 kHz
    Frame rate : 46,875 FPS (1024 SPF)
    Compression mode : Lossy
    Stream size : 386 MiB (2%)
    Jazyk : English
    Default : Ne
    Forced : Ne

    Audio #4
    ID : 6
    Formát : AC-3
    Formát/Info : Audio Coding 3
    Commercial name : Dolby Digital
    Codec ID : A_AC3
    Duration : 2 h 1 min
    Bit rate mode : Constant
    Bit rate : 640 kb/s
    Kanál(y) : 6 kanály
    Channel layout : L R C LFE Ls Rs
    Sampling rate : 48,0 kHz
    Frame rate : 31,250 FPS (1536 SPF)
    Compression mode : Lossy
    Video delay : 120 ms
    Stream size : 555 MiB (3%)
    Jazyk : Czech
    Service kind : Complete Main
    Default : Ano
    Forced : Ano

    Text #1
    ID : 5
    Formát : UTF-8
    Codec ID : S_TEXT/UTF8
    Codec ID/Info : UTF-8 Plain Text
    Duration : 1 h 52 min
    Bit rate : 65 b/s
    Count of elements : 1719
    Stream size : 53,4 KiB (0%)
    Jazyk : English
    Default : Ano
    Forced : Ne

    Text #2
    ID : 7
    Formát : UTF-8
    Codec ID : S_TEXT/UTF8
    Codec ID/Info : UTF-8 Plain Text
    Duration : 1 h 51 min
    Bit rate : 57 b/s
    Count of elements : 1743
    Stream size : 46,9 KiB (0%)
    Jazyk : Czech
    Default : Ne
    Forced : Ne

    Menu
    00:00:00.000 : Chapter 01
    00:02:37.615 : Chapter 02
    00:07:01.754 : Chapter 03
    00:10:53.944 : Chapter 04
    00:17:10.988 : Chapter 05
    00:20:37.861 : Chapter 06
    00:22:21.631 : Chapter 07
    00:25:28.026 : Chapter 08
    00:35:00.932 : Chapter 09
    00:39:13.267 : Chapter 10
    00:43:58.886 : Chapter 11
    00:51:49.022 : Chapter 12
    00:56:17.540 : Chapter 13
    01:00:15.778 : Chapter 14
    01:05:01.814 : Chapter 15
    01:09:42.219 : Chapter 16
    01:13:53.345 : Chapter 17
    01:18:10.602 : Chapter 18
    01:20:08.303 : Chapter 19
    01:22:52.467 : Chapter 20
    01:25:20.323 : Chapter 21
    01:27:46.844 : Chapter 22
    01:31:53.591 : Chapter 23
    01:34:23.074 : Chapter 24
    01:38:45.044 : Chapter 25
    01:40:55.424 : Chapter 26
    01:43:22.279 : Chapter 27
    01:46:15.118 : Chapter 28
    01:51:43.488 : Chapter 29
    01:53:23.838 : Chapter 30







    VDAKA ZA BODY a SEEDUJTE





    ONLINE











    matkowic, pretorian_pp, pepa49, dave8888, lalik,

    + Pridaj vlastnu verziu tohto torrentu +


    Upozornenie:
    Ziadny zo zobrazených súborov sa nenachádza na tomto serveri. Server slúzi len k síreniu vlastnorucne vytvorených aplikácií, videí, hudby ai. Autori stránok nenesú ziadnu zodpovednost za zverejnené odkazy, komentáre a obsah súborov. Vsetky komentáre, odkazy, súbory ktoré by svojou povahou mohli byt v rozpore zo zákonmi sem vkladáte na vlastnú zodpovednost. Autori stránok si vyhradzujú právo cenzúry odkazov, komentárov príp. súborov, ktoré by svojou povahou mohli byt v rozpore zo zákonmi a dobrými mravmi. Dodrzujte pravidlá!




    Uploader
    11/06/2021 15.30.34
    Poslal mi jeden uzivatel:


    je to SDR,preto BT709.

    Je to od Amazonu priamo ,čiže to niekto,nejaká firma prerobila do 4K.

    link tu ...  https://www.amazon.com/Deep-Impact-UHD-Robert-Duvall/dp/B089QYQ37P

    pod názvom je označenie aj HRD/UHDR


    --------------
    >> 11/06/2021 16.56.51
    4K: Ano, jak píšeš SDR je BT709 a je typický pro Full HD (1080).
    Uvedený odkaz na Amazonu ale uvádí 4K HDR, tudíž by barevný prostor měl být BT2020.
    Takže buď tento torrent není HDR (BT2020) a nebyl zdrojem Amazon. Nebo byl-li zdroj tohoto souboru Amazon, nemají správný popis.
    Či je to nějaká "jako předělávka" z Full HD.

    Velice slušný článek na téma: UHD, 4k, HDR, .... zde
    https://www.blu-space.cz/single-post/2016/06/14/co-je-4k-ultra-hd-v%C5%A1e-o-uhd-4k-hdr-wcg-ultra-hd-bluray-a-problematice-nov%C3%BDch-form%C3%A1t%C5%AF-vide

    0
    4K
    Ratio 8.18

    VIP

    10/06/2021 15.06.23
    Zdrojový soubor byl BT709 ? Či pročpak takto, pročpak?


    --------------
    >> 10/06/2021 16.46.13
    UPLOADER: neviem....nieco tam nesedi ci co?


    --------------
    >> 10/06/2021 17.52.08
    4K: U 4K filmů je standartní barevný prostor BT2020.
    Takže použití BT709 skoro svědčí o konverzi z 1080p.
    Jinak snaha se samože cení


    --------------
    >> 10/06/2021 19.28.58
    UPLOADER: Takze verzia co som stiahol je upscale 1080p?


    --------------
    >> 11/06/2021 15.10.20
    4K: Dle uvedeného media info to tak vypadá.
    Na "levných" TV či monitorech a menších úhlopříčkách, to při zdařilém upscale, příliš poznat být nemusí. Ale na OLED TV to bývá často přímo do očí byjící.


    Back

    Na serveru se nenalézají zádne soubory. Za odkazy jsou výhradně zodpovědní uzivatelé a návstěvníci tohoto trackeru. Administrátor není zodpovědný za pridaný obsah ani za skody zpusobené uzivateli. Rozsirovat stránku nebo její obsah bez souhlasu ownera je zakázano. Nesmíte pouzívat tuto webovou stránku pro distribuovaní nebo download zádného materiálu pokud nemáte povolení od príslusného vlastníka práv. Uzivatelé jsou zodpovědní za dodrzování těchto pravidel a podmínek. Owner má právo kdykoliv změnit pravidla tohoto trackeru.

    [ Script trval: 0.020 sec. ] - [ GZIP: enabled ]
    BtiTracker (1.4.8) by Btiteam
    Je zhruba 00:35

    TOPlist