Tvoj účet nieje VIP.
Preto sú tvoje funkcie a možnosti značne obmedzené.
Pre aktiváciu VIP klikni sem.

Drtivy dopad / Deep Impact (1998)(DVDrip)(EN/CZ) = CSFD 64% | SkTorrent.eu

Cz-SkTorrent open Tracker, na volné zdielanie súborov. Pridajte sa k nasej komunite a získajte pristup k tisícom torrentov.

  • vysoká rýchlost
  • úplne zdarma
  • prevazne Slovenska a Ceska scena
  • ste tu s nami uz 5 rokov - Dakujeme
  • Vitaj Guest (Login) Ako stahovat
    torrenty?
    Torrenty:
    v1 textová
    v2 obrázková
    v3 online filmy
    Ako sa stat
    Uploaderom
    Online
    Filmy
    Forum
    Pravidlá
    BitTorrent
    klient
    Meno: Heslo:
    Zaregistrovat
    Po zaregistrovaní mozte volne stahovat
    Zabudol som heslo

    Torrent's details
    Drtivy dopad / Deep Impact (1998)(DVDrip)(EN/CZ) = CSFD 64% Názov:Drtivy dopad / Deep Impact (1998)(DVDrip)(EN/CZ) = CSFD 64% Hodnocení:N/A Stiahnut
    Pozriet Online
    Kategória:Filmy CZ/SK dabing Velikost:4.3 GB BitTorrent klient
    Pridaný: Súbory:
    Skontrolován:2021-06-09 Peerov:15 (Seed: 15, Leech: 0)
    Zaner:Akcni,Drama,Katastroficky,Sci-Fi Uploader:Uvidis, az ked budes
    VIP
    Kúp nám Pivo 1,10€

    Kúp nám Pivo
    Podporte nas na Facebooku !
    Pridaj do zalozky
    Pridaj do zalozky








    Drtivy dopad - Deep Impact (1998)
    DVDrip CZ a púvodní dabing + CZ tit

                   








    Katastrofický / Drama / Akční / Sci-Fi / Thriller
    USA, 1998, 120 min
    Režie: Mimi Leder
    Scénář: Bruce Joel Rubin, Michael Tolkin
    Kamera: Dietrich Lohmann
    Hudba: James Horner
    Hrají: Robert Duvall, Téa Leoni, Elijah Wood, Vanessa Redgrave, (Morgan Freeman - ), Maximilian Schell, James Cromwell, Ron Eldard, Jon Favreau





    K Zemi se blíží Wolf-Biedermanova kometa, větší než Mount Everest. Ke srážce, jež bude znamenat konec planety Země, má dojít za necelý rok. Zatímco se chystá vesmírná expedice, jež se má pokusit rozstřílet kometu jadernými zbraněmi, na Zemi se rychle chystají podzemní kryty, jakési archy záchrany.







    Formát                                   : Matroska
    Format version                           : Version 2
    Velikost souboru                         : 4,29 GiB
    Duration                                 : 1 h 48 min
    Overall bit rate mode                    : Variable
    Celkový BitRate                          : 5 644 kb/s
    Encoded date                             : UTC 2021-06-08 21:26:43
    Použitý software                         : MakeMKV v1.16.3 win(x64-release)
    Enkódoval                                : libmakemkv v1.16.3 (1.3.10/1.5.2) win(x64-release)

    Video
    ID                                       : 1
    ID in the original source medium         : 224 (0xE0)
    Formát                                   : MPEG Video
    Format version                           : Version 2
    Format profile                           : Main@Main
    Format settings                          : CustomMatrix / BVOP
    Format settings, BVOP                    : Ano
    Format settings, Matrix                  : Custom
    Format settings, GOP                     : M=3, N=12
    Format settings, picture structure       : Frame
    Codec ID                                 : V_MPEG2
    Codec ID/Info                            : MPEG 1 or 2 Video
    Duration                                 : 1 h 48 min
    Bit rate mode                            : Variable
    Bit rate                                 : 5 447 kb/s
    Maximum bit rate                         : 9 800 kb/s
    Šířka                                    : 720pixely
    Výška                                    : 576pixely
    Poměr stran                              : 16:9
    Frame rate mode                          : Constant
    Frame rate                               : 25,000 FPS
    Standard                                 : Component
    Color space                              : YUV
    Chroma subsampling                       : 4:2:0
    Bit depth                                : 8 bits
    Scan type                                : Interlaced
    Scan order                               : Top Field First
    Compression mode                         : Lossy
    Bits/(Pixel*Frame)                       : 0.525
    Time code of first frame                 : 01:00:00:00
    Time code source                         : Group of pictures header
    GOP, Open/Closed                         : Open
    GOP, Open/Closed of first frame          : Closed
    Stream size                              : 4,14 GiB (97%)
    Jazyk                                    : English
    Default                                  : Ne
    Forced                                   : Ne
    Color primaries                          : BT.601 PAL
    Transfer characteristics                 : BT.470 System B/G
    Matrix coefficients                      : BT.470 System B/G
    Original source medium                   : DVD-Video

    Audio
    ID                                       : 2
    ID in the original source medium         : 189 (0xBD)129 (0x81)
    Formát                                   : AC-3
    Formát/Info                              : Audio Coding 3
    Commercial name                          : Dolby Digital
    Format settings                          : Dolby Surround
    Codec ID                                 : A_AC3
    Duration                                 : 1 h 48 min
    Bit rate mode                            : Constant
    Bit rate                                 : 192 kb/s
    Kanál(y)                                 : 2 kanály
    Channel layout                           : L R
    Sampling rate                            : 48,0 kHz
    Frame rate                               : 31,250 FPS (1536 SPF)
    Compression mode                         : Lossy
    Video delay                              : 8 ms
    Stream size                              : 149 MiB (3%)
    Titul                                    : Stereo
    Jazyk                                    : Czech
    Service kind                             : Complete Main
    Default                                  : Ano
    Forced                                   : Ne
    Original source medium                   : DVD-Video










    ONLINE











    tomasdeen, KRAKATOA2691, Adnay,

    + Pridaj vlastnu verziu tohto torrentu +


    Upozornenie:
    Ziadny zo zobrazených súborov sa nenachádza na tomto serveri. Server slúzi len k síreniu vlastnorucne vytvorených aplikácií, videí, hudby ai. Autori stránok nenesú ziadnu zodpovednost za zverejnené odkazy, komentáre a obsah súborov. Vsetky komentáre, odkazy, súbory ktoré by svojou povahou mohli byt v rozpore zo zákonmi sem vkladáte na vlastnú zodpovednost. Autori stránok si vyhradzujú právo cenzúry odkazov, komentárov príp. súborov, ktoré by svojou povahou mohli byt v rozpore zo zákonmi a dobrými mravmi. Dodrzujte pravidlá!


    No comments...


    Back

    Na serveru se nenalézají zádne soubory. Za odkazy jsou výhradně zodpovědní uzivatelé a návstěvníci tohoto trackeru. Administrátor není zodpovědný za pridaný obsah ani za skody zpusobené uzivateli. Rozsirovat stránku nebo její obsah bez souhlasu ownera je zakázano. Nesmíte pouzívat tuto webovou stránku pro distribuovaní nebo download zádného materiálu pokud nemáte povolení od príslusného vlastníka práv. Uzivatelé jsou zodpovědní za dodrzování těchto pravidel a podmínek. Owner má právo kdykoliv změnit pravidla tohoto trackeru.

    [ Script trval: 0.062 sec. ] - [ GZIP: enabled ]
    BtiTracker (1.4.8) by Btiteam
    Je zhruba 23:00

    TOPlist