Tvoj účet nieje VIP.
Preto sú tvoje funkcie a možnosti značne obmedzené.
Pre aktiváciu VIP klikni sem.

Duch boje / Chocolate (2008)(1080p)(BluRay)(CZ) = CSFD 70% | SkTorrent.eu

Cz-SkTorrent open Tracker, na volné zdielanie súborov. Pridajte sa k nasej komunite a získajte pristup k tisícom torrentov.

  • vysoká rýchlost
  • úplne zdarma
  • prevazne Slovenska a Ceska scena
  • ste tu s nami uz 5 rokov - Dakujeme
  • Vitaj Guest (Login) Ako stahovat
    torrenty?
    Torrenty:
    v1 textová
    v2 obrázková
    v3 online filmy
    Ako sa stat
    Uploaderom
    Online
    Filmy
    Forum
    Pravidlá
    BitTorrent
    klient
    Meno: Heslo:
    Zaregistrovat
    Po zaregistrovaní mozte volne stahovat
    Zabudol som heslo

    Torrent's details
    Duch boje / Chocolate (2008)(1080p)(BluRay)(CZ) = CSFD 70% Názov:Duch boje / Chocolate (2008)(1080p)(BluRay)(CZ) = CSFD 70% Hodnocení:N/A Stiahnut
    Pozriet Online
    Kategória:HD Filmy Velikost:3.9 GB BitTorrent klient
    Pridaný: Súbory:
    Skontrolován:2021-07-30 Peerov:15 (Seed: 15, Leech: 0)
    Zaner:Akcni,Drama Uploader:Uvidis, az ked budes
    VIP
    Kúp nám Pivo 1,10€

    Kúp nám Pivo
    Podporte nas na Facebooku !
    Pridaj do zalozky
    Pridaj do zalozky








    Duch boje / Chocolate (2008)
    BleRay rip CZ dabing

                   










    Akční / Drama
    Thajsko, 2008, 110 min
    Režie: Prachya Pinkaew
    Scénář: Chookiat Sakveerakul, Napalee
    Kamera: Decha Srimantra
    Hrají: JeeJa Yanin, Ammara Siripong, Hiroši Abe, Pongpat Wachirabunjong





    Nový film od tvůrců "Ong Bak"! Zen, která se narodila z lásky vraha Yakuzy a jedné nebezpečné krásky, je velmi zvláštní dívkou. Žije odřezána od světa a objeví v sobě vlastnost, která v kořenech změní její život. Tato obzvláštní vlastnost ji umožňuje okamžitě dokonale napodobit jakýkoliv bojovný pohyb, který uvidí. Mezitím dívčina matka onemocní rakovinou, ale přestože jim mnoho mužů dluží, nemají peněz na její léčení. Zen se rozhodne, že pomoci nově získaných schopností sežene peníze od dlužníků a zachrání nemocnou matku. Od této chvíle ji udržuje při životě jen jediná věc - boj. Přestože se narodila jako autistka, pomocí kousku čokolády se dokáže vymanit ze svého vnitřního světa a stát se zápasnicí bojového umění, jakou ještě svět nikdy neviděl.








    Formát                                   : Matroska
    Format version                           : Version 4
    Velikost souboru                         : 3,87 GiB
    Duration                                 : 1 h 32 min
    Overall bit rate mode                    : Variable
    Celkový BitRate                          : 5 985 kb/s
    Název filmu                              : Duch boje - Chocolate (2008)(1080p)(BluRay)(CZ) PHDTeam 2021
    Encoded date                             : UTC 2021-07-30 19:22:10
    Použitý software                         : mkvmerge v59.0.0 ('Shining Star') 64-bit
    Enkódoval                                : libebml v1.4.2 + libmatroska v1.6.4
    Attachments                              : folder.jpg

    Video
    ID                                       : 1
    Formát                                   : AVC
    Formát/Info                              : Advanced Video Codec
    Format profile                           : High@L4.1
    Format settings                          : CABAC / 4 Ref Frames
    Format settings, CABAC                   : Ano
    Format settings, Reference frames        : 4 frames
    Codec ID                                 : V_MPEG4/ISO/AVC
    Duration                                 : 1 h 32 min
    Bit rate mode                            : Variable
    Bit rate                                 : 5 866 kb/s
    Maximum bit rate                         : 25,0 Mb/s
    Šířka                                    : 1 914pixely
    Výška                                    : 1 080pixely
    Poměr stran                              : 16:9
    Frame rate mode                          : Constant
    Frame rate                               : 23,976 (24000/1001) FPS
    Color space                              : YUV
    Chroma subsampling                       : 4:2:0
    Bit depth                                : 8 bits
    Scan type                                : Progressive
    Bits/(Pixel*Frame)                       : 0.118
    Stream size                              : 3,79 GiB (98%)
    Titul                                    : Duch boje - Chocolate (2008)(1080p)(BluRay)(CZ) PHDTeam
    Enkódoval                                : x264 core 122 r2184 5c85e0a
    Nastavení enkoderu                       : cabac=1 / ref=4 / deblock=1:-3:-3 / analyse=0x3:0x133 / me=umh / subme=11 / psy=1 / psy_rd=1.00:0.00 / mixed_ref=1 / me_range=32 / chroma_me=1 / trellis=2 / 8x8dct=1 / cqm=0 / deadzone=21,11 / fast_pskip=0 / chroma_qp_offset=-2 / threads=9 / sliced_threads=0 / nr=0 / decimate=1 / interlaced=0 / bluray_compat=0 / constrained_intra=0 / bframes=8 / b_pyramid=2 / b_adapt=2 / b_bias=30 / direct=1 / weightb=1 / open_gop=0 / weightp=2 / keyint=240 / keyint_min=23 / scenecut=40 / intra_refresh=0 / rc_lookahead=40 / rc=2pass / mbtree=0 / bitrate=5866 / ratetol=2.0 / qcomp=1.00 / qpmin=0 / qpmax=51 / qpstep=4 / cplxblur=20.0 / qblur=0.5 / vbv_maxrate=25000 / vbv_bufsize=62500 / nal_hrd=vbr / ip_ratio=1.40 / pb_ratio=1.30 / aq=1:1.00
    Jazyk                                    : English
    Default                                  : Ano
    Forced                                   : Ne
    Color range                              : Limited
    Color primaries                          : BT.709
    Transfer characteristics                 : BT.709
    Matrix coefficients                      : BT.709

    Audio
    ID                                       : 2
    Formát                                   : MPEG Audio
    Format version                           : Version 1
    Format profile                           : Layer 3
    Codec ID                                 : A_MPEG/L3
    Codec ID/Hint                            : MP3
    Duration                                 : 1 h 32 min
    Bit rate mode                            : Constant
    Bit rate                                 : 128 kb/s
    Kanál(y)                                 : 2 kanály
    Sampling rate                            : 48,0 kHz
    Frame rate                               : 41,667 FPS (1152 SPF)
    Compression mode                         : Lossy
    Stream size                              : 84,7 MiB (2%)
    Titul                                    : CZ MP3 2.0
    Jazyk                                    : Czech
    Default                                  : Ano
    Forced                                   : Ne









    ONLINE











    llebo4, suzyyona, Lampion104, lubomirhruska, gerbil, 12685,

    + Pridaj vlastnu verziu tohto torrentu +


    Upozornenie:
    Ziadny zo zobrazených súborov sa nenachádza na tomto serveri. Server slúzi len k síreniu vlastnorucne vytvorených aplikácií, videí, hudby ai. Autori stránok nenesú ziadnu zodpovednost za zverejnené odkazy, komentáre a obsah súborov. Vsetky komentáre, odkazy, súbory ktoré by svojou povahou mohli byt v rozpore zo zákonmi sem vkladáte na vlastnú zodpovednost. Autori stránok si vyhradzujú právo cenzúry odkazov, komentárov príp. súborov, ktoré by svojou povahou mohli byt v rozpore zo zákonmi a dobrými mravmi. Dodrzujte pravidlá!


    No comments...


    Back

    Na serveru se nenalézají zádne soubory. Za odkazy jsou výhradně zodpovědní uzivatelé a návstěvníci tohoto trackeru. Administrátor není zodpovědný za pridaný obsah ani za skody zpusobené uzivateli. Rozsirovat stránku nebo její obsah bez souhlasu ownera je zakázano. Nesmíte pouzívat tuto webovou stránku pro distribuovaní nebo download zádného materiálu pokud nemáte povolení od príslusného vlastníka práv. Uzivatelé jsou zodpovědní za dodrzování těchto pravidel a podmínek. Owner má právo kdykoliv změnit pravidla tohoto trackeru.

    [ Script trval: 0.022 sec. ] - [ GZIP: enabled ]
    Je zhruba 15:18

    TOPlist