Tvoj účet nieje VIP.
Preto sú tvoje funkcie a možnosti značne obmedzené.
Pre aktiváciu VIP klikni sem.

Dune / Duna (2021)(CZ/EN)(2160p 4K BRRip) = CSFD 82% | SkTorrent.eu

Cz-SkTorrent open Tracker, na volné zdieľanie súborov. Pridajte sa k našej komunite a získajte prístup k tisícom torrentov.

  • vysoká rýchlosť
  • úplne zdarma
  • prevažne Slovenská a Česká scéna
  • ste tu s nami už 10 rokov - Ďakujeme
  • Vitaj Guest (Login) Ako stahovat
    torrenty?
    Torrenty:
    v1 textová
    v2 obrázková
    Ako sa stat
    Uploaderom
    Online
    Filmy
    Forum
    Pravidlá
    SkTSocial
    BitTorrent
    klient
    Meno: Heslo:
    Zaregistrovat
    Po zaregistrovaní mozte volne stahovat
    Zabudol som heslo

    Dune / Duna (2021)(CZ/EN)(2160p 4K BRRip) = CSFD 82% Názov:Dune / Duna (2021)(CZ/EN)(2160p 4K BRRip) = CSFD 82% Hodnocení: Stiahnut
    Pozriet Online
    Kategória:UHD Filmy - Velikost:30.3 GB BitTorrent klient
    Pridaný: Súbory:
    Skontrolován:2024-02-12 Peerov:79 (Seed: 74, Leech: 5)
    Zaner:Akcni,Dobrodruzny,Drama,Sci-Fi Uploader:Uvidis, az ked budes
    VIP
    Kúp nám Pivo 1,10€

    Kúp nám Pivo

    Pridaj do zalozky
    Pridaj do zalozky






    DUNA  (2021)(CZ/EN) = CSFD 83%



    2160p 4K HDR10 – 27.9 Mb/s Bitrate verzia








    Video: 2160p 4K HDR10 - HEVC
    Jazyk: CZ 5.1 DD / EN 7.1 True-HD / EN 7.1 DTS-HD / EN 5.1 DD
    Titulky: CZ / EN Full + Forced
    Sci-Fi / Akční / Dobrodružný / Drama
    USA / CAN  2021
    155 min


    PRODUKCE & HERCI

    Režie: Denis Villeneuve
    Předloha: Frank Herbert (kniha)
    Scénář: Jon Spaihts, Denis Villeneuve, Eric Roth
    Kamera: Greig Fraser
    Hudba: Hans Zimmer
    Hrají: Timothée Chalamet, Rebecca Ferguson, Oscar Isaac, Jason Momoa, Josh Brolin, (Javier Bardem - ), Stellan Skarsgård, Zendaya, Dave Bautista, David Dastmalchian, Sharon Duncan-Brewster, Charlotte Rampling, Chen Chang, Stephen McKinley Henderson, Babs Olusanmokun, Golda Rosheuvel, Neil Bell, Tachia Newall, Roger Yuan, Oliver Ryan, Charlie Rawes, Gloria Obianyo, Jimmy Walker, Paul Bullion, János Timkó, Björn Freiberg, Michael Nardone, Ferenc Iván Szabó



    OBSAH

    Kultovní sci-fi dílo vypráví o mocenských bojích uvnitř galaktického Impéria, v nichž jde o ovládnutí planety Arrakis: zdroje vzácného koření - melanže, jež poskytuje zvláštní psychické schopnosti, které umožňují cestování vesmírem. Padišáh imperátor svěří správu nad Arrakisem a s ní i komplikovanou těžbu neobyčejné látky vévodovi rodu Atreidů. Celá anabáze je ale součástí spiknutí, z něhož se podaří vyváznout jen vévodovu synovi Paulovi a jeho matce, kteří uprchnou do pouště. Jejich jedinou nadějí jsou nedůvěřiví domorodí obyvatelé fremeni, schopní trvale přežít ve vyprahlé pustině. Mohl by Paul Atreides být spasitelem, na kterého tak dlouho čekají?


    SCREEN




    TRAILER






    Hlavní
    Formát : Matroska
    Format version : Version 4
    Velikost souboru : 30,3 GiB
    Duration : 2 h 35 min
    Overall bit rate mode : Variable
    Celkový BitRate : 27,9 Mb/s
    Encoded date : UTC 2021-12-05 20:57:40
    Použitý software : mkvmerge v63.0.0 ('Everything') 64-bit
    Enkódoval : libebml v1.4.2 + libmatroska v1.6.4

    Video
    ID : 1
    Formát : HEVC
    Formát/Info : High Efficiency Video Coding
    Format profile : Main 10@L5.1@High
    HDR format : SMPTE ST 2086, HDR10 compatible
    Codec ID : V_MPEGH/ISO/HEVC
    Duration : 2 h 35 min
    Bit rate : 19,8 Mb/s
    Šířka : 3 840pixely
    Výška : 1 606pixely
    Poměr stran : 2,40:1
    Frame rate mode : Constant
    Frame rate : 23,976 (24000/1001) FPS
    Color space : YUV
    Chroma subsampling : 4:2:0 (Type 2)
    Bit depth : 10 bits
    Bits/(Pixel*Frame) : 0.134
    Stream size : 21,5 GiB (71%)
    Enkódoval : x265 3.0_Au+10-74a8672ea4f7:[Windows][GCC 8.2.1][64 bit] 10bit
    Default : Ano
    Forced : Ne
    Color range : Limited
    Color primaries : BT.2020
    Transfer characteristics : PQ
    Matrix coefficients : BT.2020 non-constant
    Mastering display color primaries : Display P3
    Mastering display luminance : min: 0.0050 cd/m2, max: 4000 cd/m2
    Maximum Content Light Level : 787 cd/m2
    Maximum Frame-Average Light Level : 239 cd/m2

    Audio #1
    ID : 2
    Formát : E-AC-3
    Formát/Info : Enhanced AC-3
    Commercial name : Dolby Digital Plus
    Codec ID : A_EAC3
    Duration : 2 h 35 min
    Bit rate mode : Constant
    Bit rate : 384 kb/s
    Kanál(y) : 6 kanály
    Channel layout : L R C LFE Ls Rs
    Sampling rate : 48,0 kHz
    Frame rate : 31,250 FPS (1536 SPF)
    Compression mode : Lossy
    Video delay : 1 s 600 ms
    Stream size : 427 MiB (1%)
    Jazyk : Czech
    Service kind : Complete Main
    Default : Ano
    Forced : Ne

    Audio #2
    ID : 4
    ID in the original source medium : 4352 (0x1100)
    Formát : MLP FBA 16-ch
    Formát/Info : Meridian Lossless Packing FBA with 16-channel presentation
    Commercial name : Dolby TrueHD with Dolby Atmos
    Codec ID : A_TRUEHD
    Duration : 2 h 35 min
    Bit rate mode : Variable
    Bit rate : 3 243 kb/s
    Maximum bit rate : 5 472 kb/s
    Kanál(y) : 8 kanály
    Channel layout : L R C LFE Ls Rs Lb Rb
    Sampling rate : 48,0 kHz
    Frame rate : 1 200,000 FPS (40 SPF)
    Bit depth : 24 bits
    Compression mode : Lossless
    Stream size : 3,52 GiB (12%)
    Jazyk : English
    Default : Ano
    Forced : Ne
    Original source medium : Blu-ray
    Number of dynamic objects : 11
    Bed channel count : 1 kanál
    Bed channel configuration : LFE

    Audio #3
    ID : 5
    Formát : DTS XLL
    Formát/Info : Digital Theater Systems
    Commercial name : DTS-HD Master Audio
    Codec ID : A_DTS
    Duration : 2 h 35 min
    Bit rate mode : Variable
    Bit rate : 3 931 kb/s
    Kanál(y) : 8 kanály
    Channel layout : C L R LFE Lb Rb Lss Rss
    Sampling rate : 48,0 kHz
    Frame rate : 93,750 FPS (512 SPF)
    Bit depth : 24 bits
    Compression mode : Lossless
    Stream size : 4,27 GiB (14%)
    Jazyk : English
    Default : Ne
    Forced : Ne

    Audio #4
    ID : 6
    ID in the original source medium : 4352 (0x1100)
    Formát : AC-3
    Formát/Info : Audio Coding 3
    Commercial name : Dolby Digital
    Format settings : Dolby Surround EX
    Codec ID : A_AC3
    Duration : 2 h 35 min
    Bit rate mode : Constant
    Bit rate : 448 kb/s
    Kanál(y) : 6 kanály
    Channel layout : L R C LFE Ls Rs
    Sampling rate : 48,0 kHz
    Frame rate : 31,250 FPS (1536 SPF)
    Compression mode : Lossy
    Stream size : 498 MiB (2%)
    Jazyk : English
    Service kind : Complete Main
    Default : Ne
    Forced : Ne
    Original source medium : Blu-ray

    Text #1
    ID : 3
    Formát : UTF-8
    Codec ID : S_TEXT/UTF8
    Codec ID/Info : UTF-8 Plain Text
    Duration : 2 h 27 min
    Bit rate : 1 b/s
    Count of elements : 51
    Stream size : 1,36 KiB (0%)
    Jazyk : Czech
    Default : Ano
    Forced : Ano

    Text #2
    ID : 7
    Formát : UTF-8
    Codec ID : S_TEXT/UTF8
    Codec ID/Info : UTF-8 Plain Text
    Duration : 2 h 25 min
    Bit rate : 31 b/s
    Count of elements : 1300
    Stream size : 33,8 KiB (0%)
    Jazyk : English
    Default : Ano
    Forced : Ne

    Text #3
    ID : 8
    Formát : UTF-8
    Codec ID : S_TEXT/UTF8
    Codec ID/Info : UTF-8 Plain Text
    Duration : 2 h 26 min
    Bit rate : 41 b/s
    Count of elements : 1686
    Stream size : 44,1 KiB (0%)
    Jazyk : English
    Default : Ne
    Forced : Ne

    Text #4
    ID : 9
    Formát : UTF-8
    Codec ID : S_TEXT/UTF8
    Codec ID/Info : UTF-8 Plain Text
    Duration : 2 h 35 min
    Bit rate : 30 b/s
    Count of elements : 1256
    Stream size : 34,1 KiB (0%)
    Jazyk : Czech
    Default : Ne
    Forced : Ne

    Menu
    00:00:00.000 : en:Chapter 01
    00:03:15.987 : en:Chapter 02
    00:12:54.774 : en:Chapter 03
    00:22:00.569 : en:Chapter 04
    00:29:16.755 : en:Chapter 05
    00:39:10.931 : en:Chapter 06
    00:47:19.795 : en:Chapter 07
    00:56:53.493 : en:Chapter 08
    01:06:50.381 : en:Chapter 09
    01:16:44.891 : en:Chapter 10
    01:26:00.655 : en:Chapter 11
    01:36:00.087 : en:Chapter 12
    01:45:09.469 : en:Chapter 13
    01:53:50.323 : en:Chapter 14
    02:03:38.411 : en:Chapter 15
    02:12:13.008 : en:Chapter 16
    02:20:45.770 : en:Chapter 17
    02:27:27.630 : en:Chapter 18







    VDAKA ZA BODY a SEEDUJTE






    ONLINE

    CZ dabing






    CZ titulky









    maysa33, Tokamak, pepa49, dave8888, mistrlister, Kačaba, mattess10, Qatrox, martyza, mumukuBuco1, gargantua, almars, czkiwi, youRhino, mantis7, barney811, TomaKata, xSmokeRx11, TheOriginis, DoktorRob, Mike23, GameByAli, jaro1232, jozef84jozef, UrsusMajor, AAA, AAA, Kevinmp4, Petopa, HECHO, MiBstarsk, gogo737, mimu, xdrobekx, charabelW, helcmma, lalik, krabat, Bladius,

    + Pridaj vlastnu verziu tohto torrentu +


    Upozornenie:
    Ziadny zo zobrazených súborov sa nenachádza na tomto serveri. Server slúzi len k síreniu vlastnorucne vytvorených aplikácií, videí, hudby ai. Autori stránok nenesú ziadnu zodpovednost za zverejnené odkazy, komentáre a obsah súborov. Vsetky komentáre, odkazy, súbory ktoré by svojou povahou mohli byt v rozpore zo zákonmi sem vkladáte na vlastnú zodpovednost. Autori stránok si vyhradzujú právo cenzúry odkazov, komentárov príp. súborov, ktoré by svojou povahou mohli byt v rozpore zo zákonmi a dobrými mravmi. Dodrzujte pravidlá!





    0
    martinzich
    Ratio 16.13

    Clen

    17/02/2024 18.00.13
    Uz mam listky do kina. V stredu je u nas druha cast


    --------------
    >> 17/02/2024 22.33.46
    UPLOADER:

    0
    martinzich
    Ratio 16.13

    Clen

    12/02/2024 18.34.14
    Moooooc sa tesim na pokracovanie

    0
    turis199
    Ratio 0.06

    Clen

    10/12/2023 13.06.26
    SEED prosim. Dekuji

    0
    Sharky01
    Ratio 4.47

    Member+

    19/10/2023 13.35.36
    seed prosím děkuji

    0
    Michalaudi
    Ratio 0.35

    VIP

    24/04/2023 18.17.00

    0
    Mefistofeles
    Ratio 0.05

    Clen

    09/03/2022 20.12.40
    Jsou v tom i bonusy?


    --------------
    >> 09/03/2022 20.55.52
    UPLOADER: je to Bluray Rip... bonusy budes mat vo Full Bluray

    0
    maysa33
    Ratio 4.07

    VIP

    16/01/2022 11.47.24
    Ahoj. Audio CZ z BD/UHD ????? nahodou  


    --------------
    >> 16/01/2022 17.53.01
    UPLOADER: cauko.... nemam zatial

    0
    mitew
    Ratio 0.27

    Clen

    15/01/2022 11.37.32
    Ahoj uploader, máš na nahodenie trilógiu The Lord of the Rings 2160p HDR CZ vo verzii Theatrical. Kratšia Theatrical verzia je komplet s CZ dabingom.


    --------------
    >> 15/01/2022 17.15.27
    UPLOADER: cau... nie nemam bohuzial

    2
    martyza
    Ratio 23.03

    Member+

    09/12/2021 20.47.44
    toto je 30Gb ver. ale spomina sa tu REMUX 86GB.
    pre mna ako srdciara,, co uploader odporuci ?
    uz som poslal 300 punkt , stiahnem to , ale zaujima ma ta FULL ver.
    toto neni real uhd 4k ?


    --------------
    >> 09/12/2021 20.59.06
    UPLOADER: cau... toto je UHD HDR10 - BluRay Rip. Remux je vytiahnuty videosubor z Bluray Discu, nijako nekomprimovany, neupravovany - najvyssia kvalita! Pre videouchylakov

    1
    martinzich
    Ratio 16.13

    Clen

    06/12/2021 09.34.56
    Za mna to najlepsie co som v poslednej dobe videl.


    --------------
    >> 06/12/2021 09.49.42
    UPLOADER:


    --------------
    >> 09/12/2021 20.39.48
    martyza: tak to si nevidel v poslednej dobe DUNE 1984  

    0
    PREDATORS
    Ratio 0

    VIP

    06/12/2021 02.29.10
    Počkám si na lepšiu kvalitu a potom si to pozriem v 4K.
    Lepšia kvalita Dolby Digital 5.1 česky - 02/2022


    --------------
    >> 06/12/2021 16.33.00
    UPLOADER: U teba ako spravneho audiouchylaka sa ani nic ine nedalo cakat

    0
    Flasher
    Ratio 0.65

    Clen

    05/12/2021 23.57.28
    Kdy bude verze v plným 4K rozlišení 3840 × 2160?


    --------------
    >> 06/12/2021 02.30.27
    PREDATORS: Tá už je vyšla 4.12.2021 a má 86GB REMUX (a Bluray 4k - 91GB)
    Ale nemá CZ dabing.




    --------------
    >> 06/12/2021 12.00.49
    Flasher: Nešlo by češtinu s této verze přidat na tu Remux verzi? Každý nepotřebuje Dolby 5.1, takže jestli je tady zvuk v pohodě, tak by to třeba většině stačilo, než čekat do února.


    --------------
    >> 06/12/2021 16.31.59
    UPLOADER: Ono je aj toto 5.1 Dolby Digital ale bitrate 384 kb/s. REMUX vo velkosti okolo 50 Gb by bolo dobre davat s tym najlepsim zvukom co je v obehu. Zopar ludi vravelo, ze na domacom kine 5.1 je pocut rozdiel. Audiouchylak PREDATORS mi da urcite za pravdu!
    Uploader
    05/12/2021 22.59.48
    Na zelanie pre - maysa33

    Plnohodnotna stopa 640 kb/s bude isto potom k verzii BluRay REMUX  


    --------------
    >> 05/12/2021 23.13.06
    maysa33: Ďakujem velmi pekne


    --------------
    >> 05/12/2021 23.29.46
    UPLOADER: rado sa stalo kolega


    Back

    Na serveru se nenalézají zádne soubory. Za odkazy jsou výhradně zodpovědní uzivatelé a návstěvníci tohoto trackeru. Administrátor není zodpovědný za pridaný obsah ani za skody zpusobené uzivateli. Nesmíte pouzívat tuto webovou stránku pro distribuovaní nebo download zádného materiálu pokud nemáte povolení od príslusného vlastníka práv. Uzivatelé jsou zodpovědní za dodrzování těchto pravidel a podmínek. Owner má právo kdykoliv změnit pravidla tohoto trackeru.

    [ Script trval: 0.119 sec. ] - [ GZIP: enabled ]
    Je zhruba 21:52
    sql

    TOPlist