Tvoj čet nieje VIP.
Preto s tvoje funkcie a možnosti značne obmedzen.
Pre aktivciu VIP klikni sem.

Dva a pol Chlapa - Two and a Half Men (S01-012)(2003-2014)(HD)(720p)(x264)(WebDL)(CZ) = CSFD 77% | SkTorrent.eu

Cz-SkTorrent open Tracker, na voln zdielanie sborov. Pridajte sa k nasej komunite a zskajte pristup k tiscom torrentov.

  • vysok rchlost
  • plne zdarma
  • prevazne Slovenska a Ceska scena
  • ste tu s nami uz 5 rokov - Dakujeme
  • Vitaj Guest (Login) Ako stahovat
    torrenty?
    Torrenty:
    v1 textov
    v2 obrzkov
    v3 online filmy
    Ako sa stat
    Uploaderom
    Online
    Filmy
    Forum
    Pravidl
    BitTorrent
    klient
    Meno: Heslo:
    Zaregistrovat
    Po zaregistrovan mozte volne stahovat
    Zabudol som heslo

    Torrent's details
    Dva a pol Chlapa - Two and a Half Men (S01-012)(2003-2014)(HD)(720p)(x264)(WebDL)(CZ) = CSFD 77% Nzov:Dva a pol Chlapa - Two and a Half Men (S01-012)(2003-2014)(HD)(720p)(x264)(WebDL)(CZ) = CSFD 77% Hodnocen: Stiahnut
    Pozriet Online
    Kategria:Seril Velikost:105.9 GB BitTorrent klient
    Pridan: Sbory:
    Skontrolovn:2022-05-11 Peerov:9 (Seed: 8, Leech: 1)
    Zaner:Komedie,Romanticky Uploader:Uvidis, az ked budes
    VIP
    Kp nm Pivo 1,10€

    Kp nm Pivo
    Podporte nas na Facebooku !
    Pridaj do zalozky
    Pridaj do zalozky






    [center]






    Nahrane na SeedBox - Down az 285 MB/s !!! vsetky uploady od PHDTeam
    Movie Name: Dva a pol Chlapa - Two and a Half Men (S01-012)(2003-2014)(Complete)

    IMDb Rating: 9.0/10

    Quality: 720p (WebRip)(HBO MAX)
    Language: Czech (Dolby Digital AC3 2.0 384ks/s)
    Subtitles: +- CZ/EN
    Director: Gary Halvorson, James Widdoes, Gail Mancuso, Jerry Zaks, James Burrows, Andrew D. Weyman, Robert Berlinger, Rob Schiller, Jon Cryer, Jeff Melman, Andy Ackerman, Mark Roberts, Ted Wass, Chuck Lorre, Jay Sandrich, Jean Sagal, J.D. Lobue, Asaad Kelada, Lee Aronsohn, Joel Zwick
    Writers: Lee Aronsohn, Nathan Chetty, Bill Prady, Tim Kelleher, Carol Mendelsohn, Susan McMartin, Jeff Abugov, Saladin K. Patterson, Jim Patterson, Don Reo, Mark Roberts, Gemma Baker, Chuck Lorre, Sarah Goldfinger, Susan Beavers, Don Foster, Eddie Gorodetsky, James Vallely, Matt Ross, Steve Tompkins, Warren Bell, Alissa Neubauer, Evan Dunsky
    Genres: Comedy


    Charlie je bohat star mldenec s domem na pli, kter s lehkost dostane kadou enu. Jeho spokojen ivot v Malibu je ale naruen, kdy se k nmu nasthuje jeho bratr Alan, kter se prv rozvd. Alan navc nen sm - m osmiletho syna Jakea. A ten d Charliemu teprve zabrat...





    [/center]

    Format                                   : Matroska
    Format version                           : Version 4
    File size                                : 453 MiB
    Duration                                 : 21 min 58 s
    Overall bit rate mode                    : Variable
    Overall bit rate                         : 2 883 kb/s
    Movie name                               : Rozchod
    Description                              : Rozchod
    Writing application                      : Lavf58.76.100
    Writing library                          : Lavf58.76.100
    ErrorDetectionType                       : Per level 1
    EPISODE_ID                               : 1
    SEASON_NUMBER                            : 1
    SHOW                                     : Dva a pl chlapa

    Video
    ID                                       : 1
    Format                                   : AVC
    Format/Info                              : Advanced Video Codec
    Format profile                           : Main@L3.1
    Format settings                          : CABAC / 4 Ref Frames
    Format settings, CABAC                   : Yes
    Format settings, Reference frames        : 4 frames
    Codec ID                                 : V_MPEG4/ISO/AVC
    Duration                                 : 21 min 58 s
    Bit rate mode                            : Variable
    Bit rate                                 : 2 500 kb/s
    Maximum bit rate                         : 3 750 kb/s
    Width                                    : 1 280 pixels
    Height                                   : 720 pixels
    Display aspect ratio                     : 16:9
    Frame rate mode                          : Constant
    Frame rate                               : 25.000 FPS
    Color space                              : YUV
    Chroma subsampling                       : 4:2:0
    Bit depth                                : 8 bits
    Scan type                                : Progressive
    Bits/(Pixel*Frame)                       : 0.109
    Stream size                              : 384 MiB (85%)
    Writing library                          : x264 core 157 r2965 861cec4
    Encoding settings                        : cabac=1 / ref=4 / deblock=1:0:0 / analyse=0x1:0x111 / me=hex / subme=7 / psy=1 / psy_rd=1.00:0.00 / mixed_ref=1 / me_range=16 / chroma_me=1 / trellis=1 / 8x8dct=0 / cqm=0 / deadzone=21,11 / fast_pskip=1 / chroma_qp_offset=-2 / threads=22 / lookahead_threads=3 / sliced_threads=0 / nr=0 / decimate=1 / interlaced=0 / bluray_compat=0 / constrained_intra=0 / bframes=3 / b_pyramid=2 / b_adapt=1 / b_bias=0 / direct=1 / weightb=1 / open_gop=0 / weightp=2 / keyint=100 / keyint_min=100 / scenecut=40 / intra_refresh=0 / rc_lookahead=40 / rc=2pass / mbtree=1 / bitrate=2500 / ratetol=1.0 / qcomp=0.60 / qpmin=0 / qpmax=69 / qpstep=4 / cplxblur=20.0 / qblur=0.5 / vbv_maxrate=3750 / vbv_bufsize=1875 / nal_hrd=vbr / filler=0 / ip_ratio=1.40 / aq=1:1.00
    Default                                  : Yes
    Forced                                   : No
    Color range                              : Limited
    Color primaries                          : BT.709
    Transfer characteristics                 : BT.709
    Matrix coefficients                      : BT.709
    VENDOR_ID                                : [0][0][0][0]

    Audio
    ID                                       : 2
    Format                                   : AC-3
    Format/Info                              : Audio Coding 3
    Commercial name                          : Dolby Digital
    Codec ID                                 : A_AC3
    Duration                                 : 21 min 57 s
    Bit rate mode                            : Constant
    Bit rate                                 : 384 kb/s
    Channel(s)                               : 2 channels
    Channel layout                           : L R
    Sampling rate                            : 48.0 kHz
    Frame rate                               : 31.250 FPS (1536 SPF)
    Bit depth                                : 32 bits
    Compression mode                         : Lossy
    Stream size                              : 60.3 MiB (13%)
    Title                                    : etina
    Language                                 : Czech
    Service kind                             : Complete Main
    Default                                  : Yes
    Forced                                   : No
    VENDOR_ID                                : [0][0][0][0]






    ONLINE

    online.sktorrent.eu
    dva-a-pol-chlapa.sk




    margharethe, zitta6, Lucyfyre666,

    + Pridaj vlastnu verziu tohto torrentu +


    Upozornenie:
    Ziadny zo zobrazench sborov sa nenachdza na tomto serveri. Server slzi len k sreniu vlastnorucne vytvorench aplikci, vide, hudby ai. Autori strnok nenes ziadnu zodpovednost za zverejnen odkazy, komentre a obsah sborov. Vsetky komentre, odkazy, sbory ktor by svojou povahou mohli byt v rozpore zo zkonmi sem vkladte na vlastn zodpovednost. Autori strnok si vyhradzuj prvo cenzry odkazov, komentrov prp. sborov, ktor by svojou povahou mohli byt v rozpore zo zkonmi a dobrmi mravmi. Dodrzujte pravidl!





    0
    fuxo112
    Ratio 0.96

    Clen

    12/05/2022 12.13.15
    Ak pridas v SK jazyku tak budeme vdacny

    0
    zitta6
    Ratio 2.65

    Member+

    12/05/2022 05.02.14

    Je tu isto v Slovencine 1-12 seria, ale je to dos star torrent a novsie televizory uz .avi sbory nepodporuju.
    A potom je tu 1-12 ta je v HD a v multi-lang, ale vo vela astiach prve chba Slovenina, niekde je prehoden v plne inej epizde, polka 9 srie SK chba a 12 sria nieje vobec SK.
    Celkovo tieto multi-lang su velmi neprijemne hlavne pri serialoch, lebo je treba na zaciatku kazdej epizody chytit ovlda a navoli sprvny jazyk spomedzi tch 3-8 jazykov. Je to otravn.
    Preto som psal, ze skoda ze tu nieje Dva a pol chlapa vo formte .mkv a isto v slovenine.

    1
    zitta6
    Ratio 2.65

    Member+

    11/05/2022 22.30.48
    koda e neni slovenina.


    --------------
    >> 12/05/2022 00.30.48
    UPLOADER: Slovencina tu uz je a v dobrej kvalite..
    ale aj v SK dabingu ju mame..
    a dialsich 8 jazykoch.. dnes som ju dval na TGx..


    --------------
    >> 12/05/2022 07.48.31
    UPLOADER: tak pridm a samostatne SK v rozlieni 720p do mesiaca ok



    --------------
    >> 12/05/2022 12.12.21
    zitta6: Si borec..


    Back

    Na serveru se nenalzaj zdne soubory. Za odkazy jsou vhradn zodpovdn uzivatel a nvstvnci tohoto trackeru. Administrtor nen zodpovdn za pridan obsah ani za skody zpusoben uzivateli. Rozsirovat strnku nebo jej obsah bez souhlasu ownera je zakzano. Nesmte pouzvat tuto webovou strnku pro distribuovan nebo download zdnho materilu pokud nemte povolen od prslusnho vlastnka prv. Uzivatel jsou zodpovdn za dodrzovn tchto pravidel a podmnek. Owner m prvo kdykoliv zmnit pravidla tohoto trackeru.

    [ Script trval: 0.039 sec. ] - [ GZIP: enabled ]
    Je zhruba 13:04
    sql

    TOPlist