Tvoj účet nieje VIP.
Preto sú tvoje funkcie a možnosti značne obmedzené.
Pre aktiváciu VIP klikni sem.

Emoji ve filmu / The Emoji Movie (2017)(SK/CZ)[720p] = CSFD 48% | SkTorrent.eu

Cz-SkTorrent open Tracker, na volné zdielanie súborov. Pridajte sa k nasej komunite a získajte pristup k tisícom torrentov.

  • vysoká rýchlost
  • úplne zdarma
  • prevazne Slovenska a Ceska scena
  • ste tu s nami uz 5 rokov - Dakujeme
  • Vitaj Guest (Login) Ako stahovat
    torrenty?
    Torrenty:
    v1 textová
    v2 obrázková
    v3 online filmy
    Ako sa stat
    Uploaderom
    Online
    Filmy
    Forum
    Pravidlá
    BitTorrent
    klient
    pruzinky
    Meno: Heslo:
    Zaregistrovat
    Po zaregistrovaní mozte volne stahovat
    Zabudol som heslo

    Torrent's details
    Emoji ve filmu / The Emoji Movie (2017)(SK/CZ)[720p] = CSFD 48% Názov:Emoji ve filmu / The Emoji Movie (2017)(SK/CZ)[720p] = CSFD 48% Hodnocení: Stiahnut
    Pozriet Online
    Kategória:Filmy Kreslené Velikost:3.1 GB BitTorrent klient
    Pridaný: Súbory:
    Skontrolován:2019-04-14 Peerov:5 (Seed: 5, Leech: 0)
    Zaner:Animovany,Dobrodruzny,Komedie Uploader:Uvidis, az ked budes
    VIP
    Kúp nám Pivo 1,10€

    Kúp nám Pivo
    Podporte nas na Facebooku !
    Pridaj do zalozky
    Pridaj do zalozky




    Emoji ve filmu  The Emoji Movie (2017) 720p BDRip XviD AC3 DD5.1 CZ/SK


    Animovaný / Dobrodružný / Komedie
    USA, 2017, 91 min

    Herci:
    Režie: Anthony Leondis
    Scénář: Eric Siegel, Anthony Leondis
    Hudba: Patrick Doyle
    Hrají: T.J. Miller, James Corden, Anna Faris, Maya Rudolph, Steven Wright, Jennifer Coolidge, Patrick Stewart, Christina Aguilera, Sofía Vergara, Rachael Ray, Sean Hayes, Jake T. Austin, Tati Gabrielle, Eric Siegel, Sean Giambrone, Liam Aiken, Tara Strong
    Producenti: Michelle Raimo
    Střih: William J. Caparella

    Obsah:
    Emoji ve filmu vás vůbec poprvé zavedou do tajného světa uvnitř vašeho mobilu. V aplikaci pro textové zprávy se ukrývá Textopolis, bujná metropole, ve které žijí vaši oblíbení Emoji v naději, že se jednou dostanou do zprávy. Každý z Emoji má jen jeden výraz, až na smajlíka jménem Gene, který má výraz vícevýznamový. To je ovšem problém, a tak se Gene rozhodne stát „normálním." Pomocnou ruku mu nabídne Hi-5 a nechvalně proslulá hackerka Jailbreak. Společně se vydají na cestu skrz aplikace, které jsou každá vlastním, zábavným světem, aby našli Kód, který může Gena opravit. Celému mobilu však začne hrozit veliké nebezpeční a jen tahle tahle trojice může svět smajlíků zachránit, než bude nadobro vymazán.

    https://www.csfd.cz/film/420523-emoji-ve-filmu/prehled/
    http://www.imdb.com/title/tt4877122/

    Jazyk: Czech , Slovak
    Subtitles: Ne


    Kvalita:
    Complete name: Emoji ve filmu  The Emoji Movie (2017) 720p.BDRip.XviD.AC3.DD5.1.CZ.SK.avi
    Format: AVI
    Format/Info: Audio Video Interleave
    File size: 3.09 GiB
    Duration: 1 h 26 min
    Overall bit rate: 5 114 kb/s

    Video
    ID: 0
    Format: MPEG-4 Visual
    Format profile: Advanced Simple@L5
    Format settings, BVOP: 2
    Format settings, QPel: No
    Format settings, GMC: No warppoints
    Format settings, Matrix: Default (MPEG)
    Muxing mode: Packed bitstream
    Codec ID: XVID
    Codec ID/Hint: XviD
    Duration: 1 h 26 min
    Bit rate: 3 816 kb/s
    Width: 1 280 pixels
    Height: 536 pixels
    Display aspect ratio: 2.40:1
    Frame rate: 23.976 (24000/1001) FPS
    Original frame rate: 23.976 (23976/1000) FPS
    Color space: YUV
    Chroma subsampling: 4:2:0
    Bit depth: 8 bits
    Scan type: Progressive
    Compression mode: Lossy
    Bits/(Pixel*Frame): 0.232
    Stream size: 2.30 GiB (75%)
    Writing library: XviD 64

    Audio #1
    ID: 1
    Format: AC-3
    Format/Info: Audio Coding 3
    Mode extension: CM (complete main)
    Format settings, Endianness: Big
    Codec ID: 2000
    Duration: 1 h 26 min
    Bit rate mode: Constant
    Bit rate: 640 kb/s
    Channel(s): 6 channels
    Channel positions: Front: L C R, Side: L R, LFE
    Sampling rate: 48.0 kHz
    Frame rate: 31.250 FPS (1536 spf)
    Bit depth: 16 bits
    Compression mode: Lossy
    Stream size: 395 MiB (13%)
    Alignment: Aligned on interleaves
    Interleave, duration: 32  ms (0.77 video frame)

    Audio #2
    ID: 2
    Format: AC-3
    Format/Info: Audio Coding 3
    Mode extension: CM (complete main)
    Format settings, Endianness: Big
    Codec ID: 2000
    Duration: 1 h 26 min
    Bit rate mode: Constant
    Bit rate: 640 kb/s
    Channel(s): 6 channels
    Channel positions: Front: L C R, Side: L R, LFE
    Sampling rate: 48.0 kHz
    Frame rate: 31.250 FPS (1536 spf)
    Bit depth: 16 bits
    Compression mode: Lossy
    Stream size: 395 MiB (13%)
    Alignment: Aligned on interleaves
    Interleave, duration: 32  ms (0.77 video frame)


    ONLINE

    SK dabing


    Upozornenie:
    Ziadny zo zobrazených súborov sa nenachádza na tomto serveri. Server slúzi len k síreniu vlastnorucne vytvorených aplikácií, videí, hudby ai. Autori stránok nenesú ziadnu zodpovednost za zverejnené odkazy, komentáre a obsah súborov. Vsetky komentáre, odkazy, súbory ktoré by svojou povahou mohli byt v rozpore zo zákonmi sem vkladáte na vlastnú zodpovednost. Autori stránok si vyhradzujú právo cenzúry odkazov, komentárov príp. súborov, ktoré by svojou povahou mohli byt v rozpore zo zákonmi a dobrými mravmi. Dodrzujte pravidlá!





    2
    SamuelSamseli12
    Ratio 0.28

    Clen

    02/02/2018 15.37.23
    Odpovedat

    seed prosim


    Back

    Na serveru se nenalézají zádne soubory. Za odkazy jsou výhradně zodpovědní uzivatelé a návstěvníci tohoto trackeru. Administrátor není zodpovědný za pridaný obsah ani za skody zpusobené uzivateli. Rozsirovat stránku nebo její obsah bez souhlasu ownera je zakázano. Nesmíte pouzívat tuto webovou stránku pro distribuovaní nebo download zádného materiálu pokud nemáte povolení od príslusného vlastníka práv. Uzivatelé jsou zodpovědní za dodrzování těchto pravidel a podmínek. Owner má právo kdykoliv změnit pravidla tohoto trackeru.

    [ Script trval: 0.033 sec. ] - [ GZIP: enabled ]
    BtiTracker (1.4.8) by Btiteam
    Je zhruba 11:41

    TOPlist