Tvoj účet nieje VIP.
Preto sú tvoje funkcie a možnosti značne obmedzené.
Pre aktiváciu VIP klikni sem.

F1: Touha po vítězství / Formula 1 - Drive to Survive (S05)(2023)(Complete)(FHD)(1080p)(HDR)(Hevc)(WebDL)(Multilang)(MultiSUB) = CSFD 93% | SkTorrent.eu

Cz-SkTorrent open Tracker, na volné zdieľanie súborov. Pridajte sa k našej komunite a získajte prístup k tisícom torrentov.

  • vysoká rýchlosť
  • úplne zdarma
  • prevažne Slovenská a Česká scéna
  • ste tu s nami už 10 rokov - Ďakujeme
  • Vitaj Guest (Login) Ako stahovat
    torrenty?
    Torrenty:
    v1 textová
    v2 obrázková
    Ako sa stat
    Uploaderom
    Online
    Filmy
    Forum
    Pravidlá
    SkTSocial
    BitTorrent
    klient
    Meno: Heslo:
    Zaregistrovat
    Po zaregistrovaní mozte volne stahovat
    Zabudol som heslo

    F1: Touha po vítězství / Formula 1 - Drive to Survive (S05)(2023)(Complete)(FHD)(1080p)(HDR)(Hevc)(WebDL)(Multilang)(MultiSUB) = CSFD 93% Názov:F1: Touha po vítězství / Formula 1 - Drive to Survive (S05)(2023)(Complete)(FHD)(1080p)(HDR)(Hevc)(WebDL)(Multilang)(MultiSUB) = CSFD 93% Hodnocení: Stiahnut
    Pozriet Online
    Kategória:Dokument - Velikost:14.2 GB BitTorrent klient
    Pridaný: Súbory:
    Skontrolován:2023-02-24 Peerov:10 (Seed: 9, Leech: 1)
    Zaner:Dokumentarny,Sportovni Uploader:Uvidis, az ked budes
    VIP
    Kúp nám Pivo 1,10€

    Kúp nám Pivo

    Pridaj do zalozky
    Pridaj do zalozky




    [center]







    Movie Name:  Formula 1 - Drive to Survive (S05)(2023)(Complete)(HDR)
    IMDb Rating: 8.6/10

    Quality: 1080p (WebDL)
    Language: E-AC-3 5.1 640kb/s - English (Atmos), Germany , Polish , Czech , Hungarian
    Subtitles: Multi
    Director: Nick Hardie, James Routh, Nonuk Walter, Martin Webb
    Creator:
    Genres: Dokumentary | Sport |


    Docuseries following the FIA Formula One World Championship across multiple seasons.




    [/center]
    Format                                   : Matroska
    Format version                           : Version 4
    File size                                : 1.84 GiB
    Duration                                 : 48 min 38 s
    Overall bit rate                         : 5 429 kb/s
    Movie name                               : Nová éra
    Encoded date                             : UTC 2023-02-24 11:28:43
    Writing application                      : mkvmerge v68.0.0 ('The Curtain') 64-bit
    Writing library                          : libebml v1.4.2 + libmatroska v1.6.4

    Video
    ID                                       : 1
    Format                                   : HEVC
    Format/Info                              : High Efficiency Video Coding
    Format profile                           : Main 10@L4.1@Main
    HDR format                               : SMPTE ST 2086, HDR10 compatible
    Codec ID                                 : V_MPEGH/ISO/HEVC
    Duration                                 : 47 min 2 s
    Bit rate                                 : 2 166 kb/s
    Width                                    : 1 920 pixels
    Height                                   : 1 080 pixels
    Display aspect ratio                     : 16:9
    Frame rate mode                          : Constant
    Frame rate                               : 50.000 FPS
    Color space                              : YUV
    Chroma subsampling                       : 4:2:0 (Type 2)
    Bit depth                                : 10 bits
    Bits/(Pixel*Frame)                       : 0.021
    Stream size                              : 729 MiB (39%)
    Default                                  : Yes
    Forced                                   : No
    Color range                              : Limited
    Color primaries                          : BT.2020
    Transfer characteristics                 : PQ
    Matrix coefficients                      : BT.2020 non-constant
    Mastering display color primaries        : Display P3
    Mastering display luminance              : min: 0.0001 cd/m2, max: 1000 cd/m2
    Maximum Content Light Level              : 1306 cd/m2
    Maximum Frame-Average Light Level        : 205 cd/m2

    Audio #1
    ID                                       : 2
    Format                                   : E-AC-3
    Format/Info                              : Enhanced AC-3
    Commercial name                          : Dolby Digital Plus
    Codec ID                                 : A_EAC3
    Duration                                 : 48 min 38 s
    Bit rate mode                            : Constant
    Bit rate                                 : 640 kb/s
    Channel(s)                               : 6 channels
    Channel layout                           : L R C LFE Ls Rs
    Sampling rate                            : 48.0 kHz
    Frame rate                               : 31.250 FPS (1536 SPF)
    Compression mode                         : Lossy
    Stream size                              : 223 MiB (12%)
    Title                                    : Czech
    Language                                 : Czech
    Service kind                             : Complete Main
    Default                                  : Yes
    Forced                                   : No

    Audio #2
    ID                                       : 3
    Format                                   : E-AC-3
    Format/Info                              : Enhanced AC-3
    Commercial name                          : Dolby Digital Plus
    Codec ID                                 : A_EAC3
    Duration                                 : 48 min 38 s
    Bit rate mode                            : Constant
    Bit rate                                 : 640 kb/s
    Channel(s)                               : 6 channels
    Channel layout                           : L R C LFE Ls Rs
    Sampling rate                            : 48.0 kHz
    Frame rate                               : 31.250 FPS (1536 SPF)
    Compression mode                         : Lossy
    Stream size                              : 223 MiB (12%)
    Title                                    : German
    Language                                 : German
    Service kind                             : Complete Main
    Default                                  : No
    Forced                                   : No

    Audio #3
    ID                                       : 4
    Format                                   : E-AC-3 JOC
    Format/Info                              : Enhanced AC-3 with Joint Object Coding
    Commercial name                          : Dolby Digital Plus with Dolby Atmos
    Codec ID                                 : A_EAC3
    Duration                                 : 48 min 38 s
    Bit rate mode                            : Constant
    Bit rate                                 : 768 kb/s
    Channel(s)                               : 6 channels
    Channel layout                           : L R C LFE Ls Rs
    Sampling rate                            : 48.0 kHz
    Frame rate                               : 31.250 FPS (1536 SPF)
    Compression mode                         : Lossy
    Stream size                              : 267 MiB (14%)
    Title                                    : English [Original]
    Language                                 : English
    Service kind                             : Complete Main
    Default                                  : No
    Forced                                   : No
    Complexity index                         : 16
    Number of dynamic objects                : 15
    Bed channel count                        : 1 channel
    Bed channel configuration                : LFE

    Audio #4
    ID                                       : 5
    Format                                   : E-AC-3
    Format/Info                              : Enhanced AC-3
    Commercial name                          : Dolby Digital Plus
    Codec ID                                 : A_EAC3
    Duration                                 : 48 min 38 s
    Bit rate mode                            : Constant
    Bit rate                                 : 640 kb/s
    Channel(s)                               : 6 channels
    Channel layout                           : L R C LFE Ls Rs
    Sampling rate                            : 48.0 kHz
    Frame rate                               : 31.250 FPS (1536 SPF)
    Compression mode                         : Lossy
    Stream size                              : 223 MiB (12%)
    Title                                    : Hungarian
    Language                                 : Hungarian
    Service kind                             : Complete Main
    Default                                  : No
    Forced                                   : No

    Audio #5
    ID                                       : 6
    Format                                   : E-AC-3
    Format/Info                              : Enhanced AC-3
    Commercial name                          : Dolby Digital Plus
    Codec ID                                 : A_EAC3
    Duration                                 : 48 min 38 s
    Bit rate mode                            : Constant
    Bit rate                                 : 640 kb/s
    Channel(s)                               : 6 channels
    Channel layout                           : L R C LFE Ls Rs
    Sampling rate                            : 48.0 kHz
    Frame rate                               : 31.250 FPS (1536 SPF)
    Compression mode                         : Lossy
    Stream size                              : 223 MiB (12%)
    Title                                    : Polish
    Language                                 : Polish
    Service kind                             : Complete Main
    Default                                  : No
    Forced                                   : No

    Text #1
    ID                                       : 7
    Format                                   : UTF-8
    Codec ID                                 : S_TEXT/UTF8
    Codec ID/Info                            : UTF-8 Plain Text
    Duration                                 : 46 min 48 s
    Bit rate                                 : 4 b/s
    Frame rate                               : 0.024 FPS
    Count of elements                        : 66
    Stream size                              : 1.71 KiB (0%)
    Title                                    : Czech [ForcedNarrative]
    Language                                 : Czech
    Default                                  : No
    Forced                                   : No

    Text #2
    ID                                       : 8
    Format                                   : UTF-8
    Codec ID                                 : S_TEXT/UTF8
    Codec ID/Info                            : UTF-8 Plain Text
    Duration                                 : 46 min 48 s
    Bit rate                                 : 77 b/s
    Frame rate                               : 0.278 FPS
    Count of elements                        : 780
    Stream size                              : 26.4 KiB (0%)
    Title                                    : Czech
    Language                                 : Czech
    Default                                  : Yes
    Forced                                   : No

    Text #3
    ID                                       : 9
    Format                                   : UTF-8
    Codec ID                                 : S_TEXT/UTF8
    Codec ID/Info                            : UTF-8 Plain Text
    Duration                                 : 46 min 46 s
    Bit rate                                 : 81 b/s
    Frame rate                               : 0.265 FPS
    Count of elements                        : 745
    Stream size                              : 27.9 KiB (0%)
    Title                                    : German
    Language                                 : German
    Default                                  : No
    Forced                                   : No

    Text #4
    ID                                       : 10
    Format                                   : UTF-8
    Codec ID                                 : S_TEXT/UTF8
    Codec ID/Info                            : UTF-8 Plain Text
    Duration                                 : 46 min 46 s
    Bit rate                                 : 1 b/s
    Frame rate                               : 0.012 FPS
    Count of elements                        : 33
    Stream size                              : 638 Bytes (0%)
    Title                                    : German [ForcedNarrative]
    Language                                 : German
    Default                                  : No
    Forced                                   : No

    Text #5
    ID                                       : 11
    Format                                   : UTF-8
    Codec ID                                 : S_TEXT/UTF8
    Codec ID/Info                            : UTF-8 Plain Text
    Duration                                 : 46 min 21 s
    Bit rate                                 : 104 b/s
    Frame rate                               : 0.304 FPS
    Count of elements                        : 846
    Stream size                              : 35.5 KiB (0%)
    Title                                    : English [CC]
    Language                                 : English
    Default                                  : No
    Forced                                   : No

    Text #6
    ID                                       : 12
    Format                                   : UTF-8
    Codec ID                                 : S_TEXT/UTF8
    Codec ID/Info                            : UTF-8 Plain Text
    Duration                                 : 45 min 18 s
    Bit rate                                 : 24 b/s
    Frame rate                               : 0.089 FPS
    Count of elements                        : 242
    Stream size                              : 8.02 KiB (0%)
    Title                                    : English [ForcedNarrative]
    Language                                 : English
    Default                                  : No
    Forced                                   : No

    Text #7
    ID                                       : 13
    Format                                   : UTF-8
    Codec ID                                 : S_TEXT/UTF8
    Codec ID/Info                            : UTF-8 Plain Text
    Duration                                 : 46 min 48 s
    Bit rate                                 : 74 b/s
    Frame rate                               : 0.271 FPS
    Count of elements                        : 760
    Stream size                              : 25.5 KiB (0%)
    Title                                    : Hungarian
    Language                                 : Hungarian
    Default                                  : No
    Forced                                   : No

    Text #8
    ID                                       : 14
    Format                                   : UTF-8
    Codec ID                                 : S_TEXT/UTF8
    Codec ID/Info                            : UTF-8 Plain Text
    Duration                                 : 46 min 48 s
    Bit rate                                 : 2 b/s
    Frame rate                               : 0.013 FPS
    Count of elements                        : 37
    Stream size                              : 830 Bytes (0%)
    Title                                    : Hungarian [ForcedNarrative]
    Language                                 : Hungarian
    Default                                  : No
    Forced                                   : No

    Text #9
    ID                                       : 15
    Format                                   : UTF-8
    Codec ID                                 : S_TEXT/UTF8
    Codec ID/Info                            : UTF-8 Plain Text
    Duration                                 : 46 min 46 s
    Bit rate                                 : 67 b/s
    Frame rate                               : 0.265 FPS
    Count of elements                        : 745
    Stream size                              : 23.0 KiB (0%)
    Title                                    : Polish
    Language                                 : Polish
    Default                                  : No
    Forced                                   : No

    Text #10
    ID                                       : 16
    Format                                   : UTF-8
    Codec ID                                 : S_TEXT/UTF8
    Codec ID/Info                            : UTF-8 Plain Text
    Duration                                 : 46 min 46 s
    Bit rate                                 : 1 b/s
    Frame rate                               : 0.009 FPS
    Count of elements                        : 25
    Stream size                              : 492 Bytes (0%)
    Title                                    : Polish [ForcedNarrative]
    Language                                 : Polish
    Default                                  : No
    Forced                                   : No

    Text #11
    ID                                       : 17
    Format                                   : UTF-8
    Codec ID                                 : S_TEXT/UTF8
    Codec ID/Info                            : UTF-8 Plain Text
    Duration                                 : 46 min 48 s
    Bit rate                                 : 125 b/s
    Frame rate                               : 0.286 FPS
    Count of elements                        : 804
    Stream size                              : 43.1 KiB (0%)
    Title                                    : Ukrainian
    Language                                 : Ukrainian
    Default                                  : No
    Forced                                   : No

    Text #12
    ID                                       : 18
    Format                                   : UTF-8
    Codec ID                                 : S_TEXT/UTF8
    Codec ID/Info                            : UTF-8 Plain Text
    Duration                                 : 46 min 48 s
    Bit rate                                 : 13 b/s
    Frame rate                               : 0.040 FPS
    Count of elements                        : 113
    Stream size                              : 4.60 KiB (0%)
    Title                                    : Ukrainian [ForcedNarrative]
    Language                                 : Ukrainian
    Default                                  : No
    Forced                                   : No









    ferryxd, ddk, popo66, pepa49, Ares43, HTC44, vandam, foxtools, Japa104, myshos66, Jablonka, Projekt23, DAWIDS2, logen994, Mekhet, linecur, blackman85, honda987, Bohus1, 3dgrafik, milanhugo, flying, lenoch2020,

    + Pridaj vlastnu verziu tohto torrentu +


    Upozornenie:
    Ziadny zo zobrazených súborov sa nenachádza na tomto serveri. Server slúzi len k síreniu vlastnorucne vytvorených aplikácií, videí, hudby ai. Autori stránok nenesú ziadnu zodpovednost za zverejnené odkazy, komentáre a obsah súborov. Vsetky komentáre, odkazy, súbory ktoré by svojou povahou mohli byt v rozpore zo zákonmi sem vkladáte na vlastnú zodpovednost. Autori stránok si vyhradzujú právo cenzúry odkazov, komentárov príp. súborov, ktoré by svojou povahou mohli byt v rozpore zo zákonmi a dobrými mravmi. Dodrzujte pravidlá!





    0
    Marko96
    Ratio 1.01

    Member+

    27/02/2023 15.10.24
    Ja mám obraz akýsi zažltnutý a nesýty. V rôznych prehrávačoch napríklad úvodné Netflix logo nie je červené ale skôr oranžové. Čo s tým je?  


    --------------
    >> 27/02/2023 21.33.42
    UPLOADER: HDR

    0
    whiteman
    Ratio 0.54

    Clen

    24/02/2023 17.25.17
    Děkuji za super torrent. Ovšem tu diakritiku v názvech souborů bych nedoporučoval

    0
    DENNI
    Ratio 99.74

    VIP

    24/02/2023 15.28.14
    Ahoj upe já bych měl rozhodně zájem
    Uploader
    24/02/2023 14.58.40
    Tulsa King v CZ 1080p - Bol by záujem ? Nakolko by som to musel zremuxovat a zmensit stopaz a to je vic casu.. Na SKYShowstime je video a zvuk mám z dabingoveho studia..  


    --------------
    >> 24/02/2023 15.27.22
    fuxo112: samozrejme ze ano

    0
    ferryxd
    Ratio 56

    Clen

    24/02/2023 13.51.36
    no zázrak


    Back

    Na serveru se nenalézají zádne soubory. Za odkazy jsou výhradně zodpovědní uzivatelé a návstěvníci tohoto trackeru. Administrátor není zodpovědný za pridaný obsah ani za skody zpusobené uzivateli. Nesmíte pouzívat tuto webovou stránku pro distribuovaní nebo download zádného materiálu pokud nemáte povolení od príslusného vlastníka práv. Uzivatelé jsou zodpovědní za dodrzování těchto pravidel a podmínek. Owner má právo kdykoliv změnit pravidla tohoto trackeru.

    [ Script trval: 0.029 sec. ] - [ GZIP: enabled ]
    Je zhruba 20:03
    sql

    TOPlist