Tvoj účet nieje VIP.
Preto sú tvoje funkcie a možnosti značne obmedzené.
Pre aktiváciu VIP klikni sem.

FIFA Uncovered / Pod povrchem (S01)(1080p)(x264)(WebDl)(CZ+Multi 5 lang)(MultiSUB) = CSFD 82% | SkTorrent.eu

Cz-SkTorrent open Tracker, na volné zdielanie súborov. Pridajte sa k nasej komunite a získajte pristup k tisícom torrentov.

  • vysoká rýchlost
  • úplne zdarma
  • prevazne Slovenska a Ceska scena
  • ste tu s nami uz 5 rokov - Dakujeme
  • Vitaj Guest (Login) Ako stahovat
    torrenty?
    Torrenty:
    v1 textová
    v2 obrázková
    Ako sa stat
    Uploaderom
    Online
    Filmy
    Forum
    Pravidlá
    BitTorrent
    klient
    Meno: Heslo:
    Zaregistrovat
    Po zaregistrovaní mozte volne stahovat
    Zabudol som heslo

    FIFA Uncovered / Pod povrchem (S01)(1080p)(x264)(WebDl)(CZ+Multi 5 lang)(MultiSUB) = CSFD 82% Názov:FIFA Uncovered / Pod povrchem (S01)(1080p)(x264)(WebDl)(CZ+Multi 5 lang)(MultiSUB) = CSFD 82% Hodnocení: Stiahnut
    Pozriet Online
    Kategória:Dokument Velikost:5.0 GB BitTorrent klient
    Pridaný: Súbory:
    Skontrolován:2022-11-16 Peerov:27 (Seed: 27, Leech: 0)
    Zaner:Dokumentarny,Krimi,Sportovni Uploader:Uvidis, az ked budes
    VIP
    Kúp nám Pivo 1,10€

    Kúp nám Pivo
    Pridaj do zalozky
    Pridaj do zalozky





    [center]






    Movie Name: FIFA Uncovered (S01)(2022)
    IMDb Rating: 5.4/10

    Quality: 1080p (WebDL)
    Language: AAC 2.0 - English , German , Hungarian , Polish , Czech
    Subtitles: Multi
    Director: Daniel Gordon
    Writers: Miles Coleman, Kevin Konak, Daniel Gordon
    Genres: Documentary | Crime | Sport


    From power struggles to global politics, an exploration of FIFA reveals the organization's checkered history and what it takes to host a World Cup.
    ***
    Co všechno obnáší organizace mistrovství světa ve fotbale? Dokument o federaci FIFA, který odkrývá její pohnutou minulost plnou tahanic o moc a velké politiky.
    ***





    [/center]
    Format                                   : Matroska
    Format version                           : Version 4
    File size                                : 1.31 GiB
    Duration                                 : 56 min 58 s
    Overall bit rate mode                    : Variable
    Overall bit rate                         : 3 294 kb/s
    Movie name                               : 1. díl
    Encoded date                             : UTC 2022-11-12 05:48:23
    Writing application                      : mkvmerge v68.0.0 ('The Curtain') 64-bit
    Writing library                          : libebml v1.4.2 + libmatroska v1.6.4

    Video
    ID                                       : 1
    Format                                   : AVC
    Format/Info                              : Advanced Video Codec
    Format profile                           : High@L4
    Format settings                          : CABAC / 4 Ref Frames
    Format settings, CABAC                   : Yes
    Format settings, Reference frames        : 4 frames
    Codec ID                                 : V_MPEG4/ISO/AVC
    Duration                                 : 56 min 47 s
    Bit rate mode                            : Variable
    Bit rate                                 : 2 658 kb/s
    Maximum bit rate                         : 20.0 Mb/s
    Width                                    : 1 920 pixels
    Height                                   : 1 080 pixels
    Display aspect ratio                     : 16:9
    Frame rate mode                          : Constant
    Frame rate                               : 25.000 FPS
    Color space                              : YUV
    Chroma subsampling                       : 4:2:0
    Bit depth                                : 8 bits
    Scan type                                : Progressive
    Bits/(Pixel*Frame)                       : 0.051
    Stream size                              : 1.05 GiB (80%)
    Writing library                          : x264 core 148 r2727 7d026e8
    Encoding settings                        : cabac=1 / ref=4 / deblock=1:0:0 / analyse=0x3:0x111 / me=umh / subme=10 / psy=1 / psy_rd=1.00:0.00 / mixed_ref=1 / me_range=120 / chroma_me=1 / trellis=2 / 8x8dct=1 / cqm=0 / deadzone=21,11 / fast_pskip=1 / chroma_qp_offset=-2 / threads=8 / lookahead_threads=2 / sliced_threads=0 / nr=0 / decimate=1 / interlaced=0 / bluray_compat=0 / stitchable=1 / constrained_intra=0 / bframes=16 / b_pyramid=2 / b_adapt=2 / b_bias=0 / direct=3 / weightb=1 / open_gop=0 / weightp=2 / keyint=250 / keyint_min=126 / scenecut=0 / intra_refresh=0 / rc_lookahead=250 / rc=crf / mbtree=1 / crf=22.0 / qcomp=0.50 / qpmin=6 / qpmax=51 / qpstep=4 / vbv_maxrate=20000 / vbv_bufsize=25000 / crf_max=0.0 / nal_hrd=vbr / filler=0 / ip_ratio=1.40 / aq=1:0.80
    Default                                  : Yes
    Forced                                   : No

    Audio #1
    ID                                       : 2
    Format                                   : AAC LC SBR
    Format/Info                              : Advanced Audio Codec Low Complexity with Spectral Band Replication
    Commercial name                          : HE-AAC
    Format settings                          : Explicit
    Codec ID                                 : A_AAC-2
    Duration                                 : 56 min 58 s
    Bit rate                                 : 128 kb/s
    Channel(s)                               : 2 channels
    Channel layout                           : L R
    Sampling rate                            : 48.0 kHz
    Frame rate                               : 23.438 FPS (2048 SPF)
    Compression mode                         : Lossy
    Stream size                              : 52.2 MiB (4%)
    Language                                 : Czech
    Default                                  : Yes
    Forced                                   : No

    Audio #2
    ID                                       : 3
    Format                                   : AAC LC SBR
    Format/Info                              : Advanced Audio Codec Low Complexity with Spectral Band Replication
    Commercial name                          : HE-AAC
    Format settings                          : Explicit
    Codec ID                                 : A_AAC-2
    Duration                                 : 56 min 58 s
    Bit rate                                 : 128 kb/s
    Channel(s)                               : 2 channels
    Channel layout                           : L R
    Sampling rate                            : 48.0 kHz
    Frame rate                               : 23.438 FPS (2048 SPF)
    Compression mode                         : Lossy
    Stream size                              : 52.2 MiB (4%)
    Language                                 : German
    Default                                  : No
    Forced                                   : No

    Audio #3
    ID                                       : 4
    Format                                   : AAC LC SBR
    Format/Info                              : Advanced Audio Codec Low Complexity with Spectral Band Replication
    Commercial name                          : HE-AAC
    Format settings                          : Explicit
    Codec ID                                 : A_AAC-2
    Duration                                 : 56 min 48 s
    Bit rate                                 : 128 kb/s
    Channel(s)                               : 2 channels
    Channel layout                           : L R
    Sampling rate                            : 48.0 kHz
    Frame rate                               : 23.438 FPS (2048 SPF)
    Compression mode                         : Lossy
    Stream size                              : 52.0 MiB (4%)
    Language                                 : English
    Default                                  : No
    Forced                                   : No

    Audio #4
    ID                                       : 5
    Format                                   : AAC LC SBR
    Format/Info                              : Advanced Audio Codec Low Complexity with Spectral Band Replication
    Commercial name                          : HE-AAC
    Format settings                          : Explicit
    Codec ID                                 : A_AAC-2
    Duration                                 : 56 min 58 s
    Bit rate                                 : 128 kb/s
    Channel(s)                               : 2 channels
    Channel layout                           : L R
    Sampling rate                            : 48.0 kHz
    Frame rate                               : 23.438 FPS (2048 SPF)
    Compression mode                         : Lossy
    Stream size                              : 52.2 MiB (4%)
    Language                                 : Hungarian
    Default                                  : No
    Forced                                   : No

    Audio #5
    ID                                       : 6
    Format                                   : AAC LC SBR
    Format/Info                              : Advanced Audio Codec Low Complexity with Spectral Band Replication
    Commercial name                          : HE-AAC
    Format settings                          : Explicit
    Codec ID                                 : A_AAC-2
    Duration                                 : 56 min 58 s
    Bit rate                                 : 128 kb/s
    Channel(s)                               : 2 channels
    Channel layout                           : L R
    Sampling rate                            : 48.0 kHz
    Frame rate                               : 23.438 FPS (2048 SPF)
    Compression mode                         : Lossy
    Stream size                              : 52.2 MiB (4%)
    Language                                 : Polish
    Default                                  : No
    Forced                                   : No

    Text #1
    ID                                       : 7
    Format                                   : UTF-8
    Codec ID                                 : S_TEXT/UTF8
    Codec ID/Info                            : UTF-8 Plain Text
    Duration                                 : 55 min 43 s
    Bit rate                                 : 85 b/s
    Count of elements                        : 805
    Stream size                              : 34.7 KiB (0%)
    Language                                 : Czech
    Default                                  : No
    Forced                                   : No

    Text #2
    ID                                       : 8
    Format                                   : UTF-8
    Codec ID                                 : S_TEXT/UTF8
    Codec ID/Info                            : UTF-8 Plain Text
    Duration                                 : 55 min 43 s
    Bit rate                                 : 5 b/s
    Count of elements                        : 74
    Stream size                              : 2.36 KiB (0%)
    Language                                 : Czech
    Default                                  : Yes
    Forced                                   : No

    Text #3
    ID                                       : 9
    Format                                   : UTF-8
    Codec ID                                 : S_TEXT/UTF8
    Codec ID/Info                            : UTF-8 Plain Text
    Duration                                 : 55 min 43 s
    Bit rate                                 : 86 b/s
    Count of elements                        : 812
    Stream size                              : 35.1 KiB (0%)
    Language                                 : German
    Default                                  : No
    Forced                                   : No

    Text #4
    ID                                       : 10
    Format                                   : UTF-8
    Codec ID                                 : S_TEXT/UTF8
    Codec ID/Info                            : UTF-8 Plain Text
    Duration                                 : 55 min 43 s
    Bit rate                                 : 25 b/s
    Count of elements                        : 270
    Stream size                              : 10.6 KiB (0%)
    Language                                 : German
    Default                                  : No
    Forced                                   : No

    Text #5
    ID                                       : 11
    Format                                   : UTF-8
    Codec ID                                 : S_TEXT/UTF8
    Codec ID/Info                            : UTF-8 Plain Text
    Duration                                 : 53 min 58 s
    Bit rate                                 : 15 b/s
    Count of elements                        : 144
    Stream size                              : 6.32 KiB (0%)
    Language                                 : English
    Default                                  : No
    Forced                                   : No

    Text #6
    ID                                       : 12
    Format                                   : UTF-8
    Codec ID                                 : S_TEXT/UTF8
    Codec ID/Info                            : UTF-8 Plain Text
    Duration                                 : 54 min 49 s
    Bit rate                                 : 97 b/s
    Count of elements                        : 903
    Stream size                              : 39.3 KiB (0%)
    Language                                 : English
    Default                                  : No
    Forced                                   : No

    Text #7
    ID                                       : 13
    Format                                   : UTF-8
    Codec ID                                 : S_TEXT/UTF8
    Codec ID/Info                            : UTF-8 Plain Text
    Duration                                 : 55 min 43 s
    Bit rate                                 : 84 b/s
    Count of elements                        : 778
    Stream size                              : 34.4 KiB (0%)
    Language                                 : Hungarian
    Default                                  : No
    Forced                                   : No

    Text #8
    ID                                       : 14
    Format                                   : UTF-8
    Codec ID                                 : S_TEXT/UTF8
    Codec ID/Info                            : UTF-8 Plain Text
    Duration                                 : 55 min 43 s
    Bit rate                                 : 6 b/s
    Count of elements                        : 78
    Stream size                              : 2.73 KiB (0%)
    Language                                 : Hungarian
    Default                                  : No
    Forced                                   : No

    Text #9
    ID                                       : 15
    Format                                   : UTF-8
    Codec ID                                 : S_TEXT/UTF8
    Codec ID/Info                            : UTF-8 Plain Text
    Duration                                 : 55 min 2 s
    Bit rate                                 : 5 b/s
    Count of elements                        : 67
    Stream size                              : 2.17 KiB (0%)
    Language                                 : Polish
    Default                                  : No
    Forced                                   : No

    Text #10
    ID                                       : 16
    Format                                   : UTF-8
    Codec ID                                 : S_TEXT/UTF8
    Codec ID/Info                            : UTF-8 Plain Text
    Duration                                 : 55 min 39 s
    Bit rate                                 : 77 b/s
    Count of elements                        : 758
    Stream size                              : 31.5 KiB (0%)
    Language                                 : Polish
    Default                                  : No
    Forced                                   : No

    Text #11
    ID                                       : 17
    Format                                   : UTF-8
    Codec ID                                 : S_TEXT/UTF8
    Codec ID/Info                            : UTF-8 Plain Text
    Duration                                 : 55 min 39 s
    Bit rate                                 : 140 b/s
    Count of elements                        : 795
    Stream size                              : 57.2 KiB (0%)
    Language                                 : Ukrainian
    Default                                  : No
    Forced                                   : No











    tibotibo, vojta229, foxtools,

    + Pridaj vlastnu verziu tohto torrentu +


    Upozornenie:
    Ziadny zo zobrazených súborov sa nenachádza na tomto serveri. Server slúzi len k síreniu vlastnorucne vytvorených aplikácií, videí, hudby ai. Autori stránok nenesú ziadnu zodpovednost za zverejnené odkazy, komentáre a obsah súborov. Vsetky komentáre, odkazy, súbory ktoré by svojou povahou mohli byt v rozpore zo zákonmi sem vkladáte na vlastnú zodpovednost. Autori stránok si vyhradzujú právo cenzúry odkazov, komentárov príp. súborov, ktoré by svojou povahou mohli byt v rozpore zo zákonmi a dobrými mravmi. Dodrzujte pravidlá!


    No comments...


    Back

    Na serveru se nenalézají zádne soubory. Za odkazy jsou výhradně zodpovědní uzivatelé a návstěvníci tohoto trackeru. Administrátor není zodpovědný za pridaný obsah ani za skody zpusobené uzivateli. Nesmíte pouzívat tuto webovou stránku pro distribuovaní nebo download zádného materiálu pokud nemáte povolení od príslusného vlastníka práv. Uzivatelé jsou zodpovědní za dodrzování těchto pravidel a podmínek. Owner má právo kdykoliv změnit pravidla tohoto trackeru.

    [ Script trval: 0.020 sec. ] - [ GZIP: enabled ]
    Je zhruba 21:43
    sql

    TOPlist