Tvoj účet nieje VIP.
Preto sú tvoje funkcie a možnosti značne obmedzené.
Pre aktiváciu VIP klikni sem.

Falcon a Winter Soldier / The Falcon and the Winter Soldier (S01)(CZ/SK/EN)(2021)(1080p HEVC) = CSFD 68% | SkTorrent.eu

Cz-SkTorrent open Tracker, na volné zdielanie súborov. Pridajte sa k nasej komunite a získajte pristup k tisícom torrentov.

  • vysoká rýchlost
  • úplne zdarma
  • prevazne Slovenska a Ceska scena
  • ste tu s nami uz 5 rokov - Dakujeme
  • Vitaj Guest (Login) Ako stahovat
    torrenty?
    Torrenty:
    v1 textová
    v2 obrázková
    v3 online filmy
    Ako sa stat
    Uploaderom
    Online
    Filmy
    Forum
    Pravidlá
    BitTorrent
    klient
    Meno: Heslo:
    Zaregistrovat
    Po zaregistrovaní mozte volne stahovat
    Zabudol som heslo

    Torrent's details
    Falcon a Winter Soldier / The Falcon and the Winter Soldier (S01)(CZ/SK/EN)(2021)(1080p HEVC) = CSFD 68% Názov:Falcon a Winter Soldier / The Falcon and the Winter Soldier (S01)(CZ/SK/EN)(2021)(1080p HEVC) = CSFD 68% Hodnocení: Stiahnut
    Pozriet Online
    Kategória:Seriál Velikost:7.3 GB BitTorrent klient
    Pridaný: Súbory:
    Skontrolován:2022-06-17 Peerov:28 (Seed: 27, Leech: 1)
    Zaner:Akcni,Dobrodruzny,Drama,Sci-Fi Uploader:Uvidis, az ked budes
    VIP
    Kúp nám Pivo 1,10€

    Kúp nám Pivo
    Podporte nas na Facebooku !
    Pridaj do zalozky
    Pridaj do zalozky











    Akční / Drama / Dobrodružný / Sci-Fi
    USA, 2021, 5 h 4 min (Minutáž: 47–57 min)


    Video: 1080p MKV HEVC
    Audio : CZ/SK/EN/ Dabing - AC-3 5.1- 256 kb/s
    Titulky : CZ/SK/EN

    Tvůrci: Malcolm Spellman
    Režie: Kari Skogland
    Scénář: Malcolm Spellman, Derek Kolstad, Michael Kastelein, Dalan Musson
    Kamera: P.J. Dillon
    Hudba: Henry Jackman
    Hrají: Anthony Mackie, Sebastian Stan, Wyatt Russell, Erin Kellyman, Daniel Brühl, Desmond Chiam, Miki Ishikawa, Emily VanCamp, Adepero Oduye, Carl Lumbly, (více)
    Produkce: Malcolm Spellman, Ariella Blejer, Dawn Kamoche
    Střih: Kelley Dixon, Jeffrey Ford, Todd Desrosiers, Rosanne Tan
    Zvuk: Matthew Wood
    Scénografie: Ray Chan, Anne Kuljian
    Masky: Jessie Gambardella, Katie Ballard
    Kostýmy: Eric Daman, Michael Crow

    Náhled








    Po událostech z Avengers: Endgame se bývalí hrdinové Sam Wilson, známý také jako Falcon (Anthony Mackie), a Bucky Barnes, bývalý Winter Soldier (Sebastian Stan) snaží žít nové životy bez svého nejlepšího přítele Steva Rogerse, bývalého Kapitána Ameriky (Chris Evans), a také ctít jeho odkaz svými vlastními způsoby, ale když přijde nová teroristická hrozba v podobě skupiny zvané „Flag-Smashers“, Sam a Bucky musí spojit síly a dát stranou svoje vzájemné neshody, aby Flag-Smashers zastavili a uctili památku Kapitána Ameriky. (Shadowspark)



    Formát                                   : Matroska
    Format version                           : Version 4
    Velikost souboru                         : 1,14 GiB
    Duration                                 : 47 min 15 s
    Celkový BitRate                          : 3 452 kb/s
    Název filmu                              : Nový řád světa
    Description                              : Sam Wilson alias Falcon se dozvídá o novém ohrožení a zároveň se potýká s problémy doma v Louisianě. Bucky Barnes se zoufale snaží znovu začlenit do společnosti, ale bojuje s nočními můrami, ve kterých znovu prožívá zločiny, které spáchal jako Winter Soldier.
    Encoded date                             : UTC 2022-06-16 20:59:57
    Použitý software                         : HandBrake 1.5.1 2022011000
    Enkódoval                                : Lavf58.76.100
    ErrorDetectionType                       : Per level 1
    ARTIST                                   : Sebastian Stan,Anthony Mackie,Daniel Brühl,Emily VanCamp,Wyatt Russell,Erin Kellyman

    Video
    ID                                       : 1
    Formát                                   : HEVC
    Formát/Info                              : High Efficiency Video Coding
    Format profile                           : Main@L5.1@Main
    Codec ID                                 : V_MPEGH/ISO/HEVC
    Duration                                 : 47 min 15 s
    Bit rate                                 : 2 616 kb/s
    Šířka                                    : 1 920pixely
    Výška                                    : 1 080pixely
    Poměr stran                              : 2,40:1
    Frame rate mode                          : Constant
    Frame rate                               : 24,000 FPS
    Color space                              : YUV
    Chroma subsampling                       : 4:2:0
    Bit depth                                : 8 bits
    Bits/(Pixel*Frame)                       : 0.053
    Stream size                              : 884 MiB (76%)
    Default                                  : Ano
    Forced                                   : Ne
    Color range                              : Limited
    Color primaries                          : BT.709
    Transfer characteristics                 : BT.709
    Matrix coefficients                      : BT.709

    Audio #1
    ID                                       : 2
    Formát                                   : E-AC-3
    Formát/Info                              : Enhanced AC-3
    Commercial name                          : Dolby Digital Plus
    Codec ID                                 : A_EAC3
    Duration                                 : 47 min 15 s
    Bit rate mode                            : Constant
    Bit rate                                 : 256 kb/s
    Kanál(y)                                 : 6 kanály
    Channel layout                           : L R C LFE Ls Rs
    Sampling rate                            : 48,0 kHz
    Frame rate                               : 31,250 FPS (1536 SPF)
    Compression mode                         : Lossy
    Stream size                              : 86,5 MiB (7%)
    Titul                                    : Čeština
    Jazyk                                    : Czech
    Service kind                             : Complete Main
    Default                                  : Ano
    Forced                                   : Ne

    Audio #2
    ID                                       : 3
    Formát                                   : E-AC-3
    Formát/Info                              : Enhanced AC-3
    Commercial name                          : Dolby Digital Plus
    Codec ID                                 : A_EAC3
    Duration                                 : 47 min 15 s
    Bit rate mode                            : Constant
    Bit rate                                 : 256 kb/s
    Kanál(y)                                 : 6 kanály
    Channel layout                           : L R C LFE Ls Rs
    Sampling rate                            : 48,0 kHz
    Frame rate                               : 31,250 FPS (1536 SPF)
    Compression mode                         : Lossy
    Stream size                              : 86,5 MiB (7%)
    Titul                                    : Slovenčina
    Jazyk                                    : Slovak
    Service kind                             : Complete Main
    Default                                  : Ne
    Forced                                   : Ne

    Audio #3
    ID                                       : 4
    Formát                                   : E-AC-3
    Formát/Info                              : Enhanced AC-3
    Commercial name                          : Dolby Digital Plus
    Codec ID                                 : A_EAC3
    Duration                                 : 47 min 15 s
    Bit rate mode                            : Constant
    Bit rate                                 : 256 kb/s
    Kanál(y)                                 : 6 kanály
    Channel layout                           : L R C LFE Ls Rs
    Sampling rate                            : 48,0 kHz
    Frame rate                               : 31,250 FPS (1536 SPF)
    Compression mode                         : Lossy
    Stream size                              : 86,5 MiB (7%)
    Titul                                    : English
    Jazyk                                    : English
    Service kind                             : Complete Main
    Default                                  : Ne
    Forced                                   : Ne

    Text #1
    ID                                       : 5
    Formát                                   : ASS
    Codec ID                                 : S_TEXT/ASS
    Codec ID/Info                            : Advanced Sub Station Alpha
    Duration                                 : 47 min 14 s
    Compression mode                         : Lossless
    Titul                                    : Čeština
    Jazyk                                    : Czech
    Default                                  : Ne
    Forced                                   : Ne

    Text #2
    ID                                       : 6
    Formát                                   : ASS
    Codec ID                                 : S_TEXT/ASS
    Codec ID/Info                            : Advanced Sub Station Alpha
    Duration                                 : 44 min 43 s
    Compression mode                         : Lossless
    Titul                                    : cs--forced--
    Jazyk                                    : Czech
    Default                                  : Ne
    Forced                                   : Ne

    Text #3
    ID                                       : 7
    Formát                                   : ASS
    Codec ID                                 : S_TEXT/ASS
    Codec ID/Info                            : Advanced Sub Station Alpha
    Duration                                 : 47 min 14 s
    Compression mode                         : Lossless
    Titul                                    : Slovenčina
    Jazyk                                    : Slovak
    Default                                  : Ne
    Forced                                   : Ne

    Text #4
    ID                                       : 8
    Formát                                   : ASS
    Codec ID                                 : S_TEXT/ASS
    Codec ID/Info                            : Advanced Sub Station Alpha
    Duration                                 : 44 min 43 s
    Compression mode                         : Lossless
    Titul                                    : sk--forced--
    Jazyk                                    : Slovak
    Default                                  : Ne
    Forced                                   : Ne

    Text #5
    ID                                       : 9
    Formát                                   : ASS
    Codec ID                                 : S_TEXT/ASS
    Codec ID/Info                            : Advanced Sub Station Alpha
    Duration                                 : 42 min 38 s
    Compression mode                         : Lossless
    Titul                                    : English [CC]
    Jazyk                                    : English
    Default                                  : Ne
    Forced                                   : Ne













    pohee, Threadt, Darthbrick, Ares43, analniprincezna,

    + Pridaj vlastnu verziu tohto torrentu +


    Upozornenie:
    Ziadny zo zobrazených súborov sa nenachádza na tomto serveri. Server slúzi len k síreniu vlastnorucne vytvorených aplikácií, videí, hudby ai. Autori stránok nenesú ziadnu zodpovednost za zverejnené odkazy, komentáre a obsah súborov. Vsetky komentáre, odkazy, súbory ktoré by svojou povahou mohli byt v rozpore zo zákonmi sem vkladáte na vlastnú zodpovednost. Autori stránok si vyhradzujú právo cenzúry odkazov, komentárov príp. súborov, ktoré by svojou povahou mohli byt v rozpore zo zákonmi a dobrými mravmi. Dodrzujte pravidlá!





    1
    GUEST135001
    Ratio 10239.98

    Clen

    20/06/2022 18.36.09
    Chcel by som sa spýtať či by nespravil eternals, black widow, shang chi v SK,CZ prosím.  

    0
    1v4n
    Ratio 0.82

    Clen

    18/06/2022 18.07.05
    dakujem


    Back

    Na serveru se nenalézají zádne soubory. Za odkazy jsou výhradně zodpovědní uzivatelé a návstěvníci tohoto trackeru. Administrátor není zodpovědný za pridaný obsah ani za skody zpusobené uzivateli. Rozsirovat stránku nebo její obsah bez souhlasu ownera je zakázano. Nesmíte pouzívat tuto webovou stránku pro distribuovaní nebo download zádného materiálu pokud nemáte povolení od príslusného vlastníka práv. Uzivatelé jsou zodpovědní za dodrzování těchto pravidel a podmínek. Owner má právo kdykoliv změnit pravidla tohoto trackeru.

    [ Script trval: 0.030 sec. ] - [ GZIP: enabled ]
    Je zhruba 00:48
    sql

    TOPlist