Tvoj účet nieje VIP.
Preto sú tvoje funkcie a možnosti značne obmedzené.
Pre aktiváciu VIP klikni sem.

Family Swap 2 [Nubiles 2021] XXX WEB DL 540p SPLIT SCENES | SkTorrent.eu

Cz-SkTorrent open Tracker, na volné zdielanie súborov. Pridajte sa k nasej komunite a získajte pristup k tisícom torrentov.

  • vysoká rýchlost
  • úplne zdarma
  • prevazne Slovenska a Ceska scena
  • ste tu s nami uz 5 rokov - Dakujeme
  • Vitaj Guest (Login) Ako stahovat
    torrenty?
    Torrenty:
    v1 textová
    v2 obrázková
    v3 online filmy
    Ako sa stat
    Uploaderom
    Online
    Filmy
    Forum
    Pravidlá
    BitTorrent
    klient
    Meno: Heslo:
    Zaregistrovat
    Po zaregistrovaní mozte volne stahovat
    Zabudol som heslo

    Torrent's details
    Family Swap 2 [Nubiles 2021] XXX WEB DL 540p SPLIT SCENES Názov:Family Swap 2 [Nubiles 2021] XXX WEB DL 540p SPLIT SCENES Hodnocení: Stiahnut
    Pozriet Online
    Kategória:xXx Velikost:1.6 GB BitTorrent klient
    Pridaný: Súbory:
    Skontrolován:2021-10-09 Peerov:24 (Seed: 24, Leech: 0)
    Zaner: Uploader:Uvidis, az ked budes
    VIP
    Kúp nám Pivo 1,10€

    Kúp nám Pivo
    Podporte nas na Facebooku !
    Pridaj do zalozky
    Pridaj do zalozky






    Popis
    Family Swap 2 [Nubiles 2021] XXX WEB-DL 540p SPLIT SCENES


    Rok vydania : 2021
    Formát : MP4, MPEG-4 Video File
    Minutáž : 4x cca 25-32 min
    Kategória : XXX 18+






    Názvy videí :[/b]



    Adira Allure, Jessie Saint.mp4

    Andi James, Jessae Rosae.mp4

    Jewelz Blu, Kit Mercer.mp4

    Lauren Phillips, Lulu Chu.mp4








    Formát                                   : MPEG-4
    Profil formátu                           : Base Media
    Označenie kodeku                         : isom (isom/iso2/avc1/mp41)
    Veľkosť súboru                           : 444 MiB
    Trvanie                                  : 32 min 23 sek.
    Celkový dátový tok                       : 1 916 kb/s
    Použitý software                         : Lavf58.20.100

    Video
    ID                                       : 1
    Formát                                   : AVC
    Formát/Info                              : Advanced Video Codec
    Profil formátu                           : Main@L3.1
    Nastavenia formátu                       : CABAC / 4 Ref Frames
    Format settings, CABAC                   : Áno
    Format settings, Reference frames        : 4snímky
    Označenie kodeku                         : avc1
    Označenie kodeku/Info                    : Advanced Video Coding
    Trvanie                                  : 32 min 23 sek.
    Dátový tok                               : 1 779 kb/s
    Šírka                                    : 960 pixelov
    Výška                                    : 540 pixelov
    Pomer strán                              : 16:9
    Režim frekvencie snímok                  : Variabilný
    Frekvencia snímok                        : 29,970 (30000/1001) snímok/sek.
    Minimálna frekvencia snímok              : 29,969 snímok/sek.
    Maximálna frekvencia snímok              : 29,999 snímok/sek.
    Color space                              : YUV
    Chroma subsampling                       : 4:2:0
    Bit depth                                : 8 bitov
    Scan type                                : Progresívne
    Bitov/(Bod*Snímka)                       : 0.115
    Stream size                              : 412 MiB (93%)
    Zakódoval                                : x264 core 150
    Codec configuration box                  : avcC

    Audio
    ID                                       : 2
    Formát                                   : AAC LC
    Formát/Info                              : Advanced Audio Codec Low Complexity
    Označenie kodeku                         : mp4a-40-2
    Trvanie                                  : 32 min 23 sek.
    Režim dátového toku                      : Konštantný dátový tok
    Dátový tok                               : 128 kb/s
    Kanál(y)                                 : 2 kanály
    Channel layout                           : L R
    Sampling rate                            : 44,1 kHz
    Frekvencia snímok                        : 43,066 snímok/sek. (1024 SPF)
    Compression mode                         : Lossy
    Stream size                              : 29,6 MiB (7%)
    Default                                  : Áno
    Alternate group                          : 1








    cader, mhr369, Divoch1312, MartinZetek, Pavelkosutka, Mazalou, mildaber, Rene8888888,

    + Pridaj vlastnu verziu tohto torrentu +


    Upozornenie:
    Ziadny zo zobrazených súborov sa nenachádza na tomto serveri. Server slúzi len k síreniu vlastnorucne vytvorených aplikácií, videí, hudby ai. Autori stránok nenesú ziadnu zodpovednost za zverejnené odkazy, komentáre a obsah súborov. Vsetky komentáre, odkazy, súbory ktoré by svojou povahou mohli byt v rozpore zo zákonmi sem vkladáte na vlastnú zodpovednost. Autori stránok si vyhradzujú právo cenzúry odkazov, komentárov príp. súborov, ktoré by svojou povahou mohli byt v rozpore zo zákonmi a dobrými mravmi. Dodrzujte pravidlá!


    No comments...


    Back

    Na serveru se nenalézají zádne soubory. Za odkazy jsou výhradně zodpovědní uzivatelé a návstěvníci tohoto trackeru. Administrátor není zodpovědný za pridaný obsah ani za skody zpusobené uzivateli. Rozsirovat stránku nebo její obsah bez souhlasu ownera je zakázano. Nesmíte pouzívat tuto webovou stránku pro distribuovaní nebo download zádného materiálu pokud nemáte povolení od príslusného vlastníka práv. Uzivatelé jsou zodpovědní za dodrzování těchto pravidel a podmínek. Owner má právo kdykoliv změnit pravidla tohoto trackeru.

    [ Script trval: 0.021 sec. ] - [ GZIP: enabled ]
    Je zhruba 08:14
    memcache

    TOPlist