Tvoj účet nieje VIP.
Preto sú tvoje funkcie a možnosti značne obmedzené.
Pre aktiváciu VIP klikni sem.

Fanfan Tulipan / Fanfan la Tulipe (1952)(CZ) = CSFD 82% | SkTorrent.eu

Cz-SkTorrent open Tracker, na volné zdieľanie súborov. Pridajte sa k našej komunite a získajte prístup k tisícom torrentov.

  • vysoká rýchlosť
  • úplne zdarma
  • prevažne Slovenská a Česká scéna
  • ste tu s nami už 10 rokov - Ďakujeme
  • Vitaj Guest (Login) Ako stahovat
    torrenty?
    Torrenty:
    v1 textová
    v2 obrázková
    Ako sa stat
    Uploaderom
    Online
    Filmy
    Forum
    Pravidlá
    SkTSocial
    BitTorrent
    klient
    Meno: Heslo:
    Zaregistrovat
    Po zaregistrovaní mozte volne stahovat
    Zabudol som heslo

    Fanfan Tulipan / Fanfan la Tulipe (1952)(CZ) = CSFD 82% Názov:Fanfan Tulipan / Fanfan la Tulipe (1952)(CZ) = CSFD 82% Hodnocení: Stiahnut
    Pozriet Online
    Kategória:Filmy CZ/SK dabing - Velikost:1.1 GB BitTorrent klient
    Pridaný: Súbory:
    Skontrolován:2013-12-14 Peerov:0 (Seed: 0, Leech: 0)
    Zaner:Dobrodruzny,Komedie,Romanticky Uploader:Uvidis, az ked budes
    VIP
    Kúp nám Pivo 1,10€

    Kúp nám Pivo

    Pridaj do zalozky
    Pridaj do zalozky




    Jazyk: český
    Titulky: Ne
    Rok vydání: 1952
    Délka: 96 minut
    Žánr: Dobrodružný / Komedie / Romantický
    Odkaz: http://www.csfd.cz/film/36721-fanfan-tulipan/
    Filmer: http://www.filmer.cz/info/36721-fanfan-tulipan/

    Obrázek:

    MediaInfo:
    General
    Complete name                            : Z:\4. Francouzske filmy cz dabing 104 GB\Fanfan Tulipan(1952)_DVD Thyronx.divx
    Format                                   : AVI
    Format/Info                              : Audio Video Interleave
    File size                                : 1.13 GiB
    Duration                                 : 1h 35mn
    Overall bit rate                         : 1 702 Kbps

    Video
    ID                                       : 0
    Format                                   : MPEG-4 Visual
    Format settings, BVOP                    : 1
    Format settings, QPel                    : No
    Format settings, GMC                     : No warppoints
    Format settings, Matrix                  : Default (H.263)
    Muxing mode                              : Packed bitstream
    Codec ID                                 : DX50
    Codec ID/Hint                            : DivX 5
    Duration                                 : 1h 35mn
    Bit rate                                 : 1 500 Kbps
    Width                                    : 768 pixels
    Height                                   : 576 pixels
    Display aspect ratio                     : 4:3
    Frame rate                               : 25.000 fps
    Color space                              : YUV
    Chroma subsampling                       : 4:2:0
    Bit depth                                : 8 bits
    Scan type                                : Progressive
    Compression mode                         : Lossy
    Bits/(Pixel*Frame)                       : 0.136
    Stream size                              : 1.00 GiB (88%)
    Title                                    : Video
    Writing library                          : DivX 6.8.5 (UTC 2009-08-20)

    Audio
    ID                                       : 1
    Format                                   : AC-3
    Format/Info                              : Audio Coding 3
    Mode extension                           : CM (complete main)
    Format settings, Endianness              : Big
    Codec ID                                 : 2000
    Duration                                 : 1h 35mn
    Bit rate mode                            : Constant
    Bit rate                                 : 192 Kbps
    Channel(s)                               : 2 channels
    Channel positions                        : Front: L R
    Sampling rate                            : 48.0 KHz
    Bit depth                                : 16 bits
    Compression mode                         : Lossy
    Stream size                              : 131 MiB (11%)
    Alignment                                : Split accross interleaves
    Interleave, duration                     : 40 ms (1.00 video frame)
    Interleave, preload duration             : 500 ms
    Title                                    : Audio


    Popis:
    Francouzský film vypráví vtipnou satirickou formou o dobrodružstvích odvážného Fanfána Tulipána, který dá přednost nedobrovolnému vstupu do vojska před sňatkem s venkovskou dívkou a ochotně uvěří žertovné předpovědi verbířovy dcery Adeliny, že se ožení s dcerou krále. Ve snaze po splnění této předpovědi se však dostane do konfliktu nejen s vojenskými zákony, ale i se samým králem Ludvíkem XV. ...

    Řekne-li se Fanfán Tulipán, vybaví se okamžitě i jméno Gérard Philipe. A naopak. Protože i přes mimořádné úspěchy v jiných filmech - stal se Fanfán pro Philipa tím nejslavnějším. Stal se triumfem romantického hrdiny, jaký snad nebyl dodnes překonán, neboť Philipe jej ztělesnil s typicky francouzskou duchaplností a šarmem jen sobě vlastním.
    Tak tohle je ten Fanfán kterého znám z mého dětství, to byl ještě jen černobílý a až v posledních letech se moderní technikou, velmi dobře obarvil. - Jsem on line každé odpoledne a dlouho do noci


    Filmy CZ/SK dabing









    milanuska, svedak, pavel1972, jano45,

    + Pridaj vlastnu verziu tohto torrentu +


    Upozornenie:
    Ziadny zo zobrazených súborov sa nenachádza na tomto serveri. Server slúzi len k síreniu vlastnorucne vytvorených aplikácií, videí, hudby ai. Autori stránok nenesú ziadnu zodpovednost za zverejnené odkazy, komentáre a obsah súborov. Vsetky komentáre, odkazy, súbory ktoré by svojou povahou mohli byt v rozpore zo zákonmi sem vkladáte na vlastnú zodpovednost. Autori stránok si vyhradzujú právo cenzúry odkazov, komentárov príp. súborov, ktoré by svojou povahou mohli byt v rozpore zo zákonmi a dobrými mravmi. Dodrzujte pravidlá!


    No comments...


    Back

    Na serveru se nenalézají zádne soubory. Za odkazy jsou výhradně zodpovědní uzivatelé a návstěvníci tohoto trackeru. Administrátor není zodpovědný za pridaný obsah ani za skody zpusobené uzivateli. Nesmíte pouzívat tuto webovou stránku pro distribuovaní nebo download zádného materiálu pokud nemáte povolení od príslusného vlastníka práv. Uzivatelé jsou zodpovědní za dodrzování těchto pravidel a podmínek. Owner má právo kdykoliv změnit pravidla tohoto trackeru.

    [ Script trval: 0.104 sec. ] - [ GZIP: enabled ]
    Je zhruba 10:39
    memcache

    TOPlist