Tvoj účet nieje VIP.
Preto sú tvoje funkcie a možnosti značne obmedzené.
Pre aktiváciu VIP klikni sem.

Farma 14 E01-16 (SK) = CSFD 16% | SkTorrent.eu

Cz-SkTorrent open Tracker, na volné zdielanie súborov. Pridajte sa k nasej komunite a získajte pristup k tisícom torrentov.

  • vysoká rýchlost
  • úplne zdarma
  • prevazne Slovenska a Ceska scena
  • ste tu s nami uz 5 rokov - Dakujeme
  • Vitaj Guest (Login) Ako stahovat
    torrenty?
    Torrenty:
    v1 textová
    v2 obrázková
    Ako sa stat
    Uploaderom
    Online
    Filmy
    Forum
    Pravidlá
    BitTorrent
    klient
    Meno: Heslo:
    Zaregistrovat
    Po zaregistrovaní mozte volne stahovat
    Zabudol som heslo

    Farma 14 E01-16 (SK) = CSFD 16% Názov:Farma 14 E01-16 (SK) = CSFD 16% Hodnocení:N/A Stiahnut
    Pozriet Online
    Kategória:TV Pořad Velikost:19.5 GB BitTorrent klient
    Pridaný: Súbory:
    Skontrolován:2022-09-26 Peerov:1 (Seed: 1, Leech: 0)
    Zaner:Reality-TV Uploader:Uvidis, az ked budes
    VIP
    Kúp nám Pivo 1,10€

    Kúp nám Pivo
    Pridaj do zalozky
    Pridaj do zalozky




    Rok 2022
    SK
    https://www.csfd.cz/film/268181-farma/prehled/

    Par dielov čo som nevedel zohnat cca 2-3 sem tam seknu, ale inak vsetko super.

    MEDIAINFO 1:

    Formát                                   : MPEG-4
    Format profile                           : Base Media / Version 2
    Codec ID                                 : mp42 (mp42)
    Velikost souboru                         : 1,29 GiB
    Duration                                 : 1 h 22 min
    Celkový BitRate                          : 2 228 kb/s
    Encoded date                             : UTC 2022-09-22 21:33:21
    Tagged date                              : UTC 2022-09-22 21:33:21

    Video
    ID                                       : 1
    Formát                                   : AVC
    Formát/Info                              : Advanced Video Codec
    Format profile                           : High@L3.1
    Format settings                          : CABAC / 2 Ref Frames
    Format settings, CABAC                   : Ano
    Format settings, Reference frames        : 2 frames
    Format settings, GOP                     : M=2, N=30
    Muxing mode                              : Container profile=Baseline@3.0
    Codec ID                                 : avc1
    Codec ID/Info                            : Advanced Video Coding
    Duration                                 : 1 h 22 min
    Bit rate                                 : 2 030 kb/s
    Šířka                                    : 1 280pixely
    Výška                                    : 720pixely
    Poměr stran                              : 16:9
    Frame rate mode                          : Constant
    Frame rate                               : 25,000 FPS
    Color space                              : YUV
    Chroma subsampling                       : 4:2:0
    Bit depth                                : 8 bits
    Scan type                                : Progressive
    Bits/(Pixel*Frame)                       : 0.088
    Stream size                              : 1,17 GiB (91%)
    Color range                              : Limited
    Color primaries                          : BT.709
    Transfer characteristics                 : BT.709
    Matrix coefficients                      : BT.709
    Codec configuration box                  : avcC

    Audio
    ID                                       : 2
    Formát                                   : AAC LC
    Formát/Info                              : Advanced Audio Codec Low Complexity
    Codec ID                                 : mp4a-40-2
    Duration                                 : 1 h 22 min
    Bit rate mode                            : Constant
    Bit rate                                 : 192 kb/s
    Kanál(y)                                 : 2 kanály
    Channel layout                           : L R
    Sampling rate                            : 44,1 kHz
    Frame rate                               : 43,066 FPS (1024 SPF)
    Compression mode                         : Lossy
    Stream size                              : 114 MiB (9%)
    Titul                                    : Stereo
    Jazyk                                    : English
    Default                                  : Ano
    Alternate group                          : 1



    MEDIAINFO 2:

    Formát                                   : MPEG-4
    Format profile                           : Base Media / Version 2
    Codec ID                                 : mp42 (mp42)
    Velikost souboru                         : 864 MiB
    Duration                                 : 54 min 36 s
    Celkový BitRate                          : 2 213 kb/s
    Encoded date                             : UTC 2022-09-10 23:41:51
    Tagged date                              : UTC 2022-09-10 23:41:51

    Video
    ID                                       : 1
    Formát                                   : AVC
    Formát/Info                              : Advanced Video Codec
    Format profile                           : High@L3.1
    Format settings                          : CABAC / 2 Ref Frames
    Format settings, CABAC                   : Ano
    Format settings, Reference frames        : 2 frames
    Format settings, GOP                     : M=2, N=30
    Muxing mode                              : Container profile=Baseline@3.0
    Codec ID                                 : avc1
    Codec ID/Info                            : Advanced Video Coding
    Duration                                 : 54 min 36 s
    Bit rate                                 : 2 015 kb/s
    Šířka                                    : 1 280pixely
    Výška                                    : 720pixely
    Poměr stran                              : 16:9
    Frame rate mode                          : Constant
    Frame rate                               : 25,000 FPS
    Color space                              : YUV
    Chroma subsampling                       : 4:2:0
    Bit depth                                : 8 bits
    Scan type                                : Progressive
    Bits/(Pixel*Frame)                       : 0.087
    Stream size                              : 787 MiB (91%)
    Color range                              : Limited
    Color primaries                          : BT.709
    Transfer characteristics                 : BT.709
    Matrix coefficients                      : BT.709
    Codec configuration box                  : avcC

    Audio
    ID                                       : 2
    Formát                                   : AAC LC
    Formát/Info                              : Advanced Audio Codec Low Complexity
    Codec ID                                 : mp4a-40-2
    Duration                                 : 54 min 36 s
    Bit rate mode                            : Constant
    Bit rate                                 : 192 kb/s
    Kanál(y)                                 : 2 kanály
    Channel layout                           : L R
    Sampling rate                            : 44,1 kHz
    Frame rate                               : 43,066 FPS (1024 SPF)
    Compression mode                         : Lossy
    Stream size                              : 75,0 MiB (9%)
    Titul                                    : Stereo
    Jazyk                                    : English
    Default                                  : Ano
    Alternate group                          : 1









    Japa104, DUALSABER, kotelnicek, radossodar, Mikulcik1987,

    + Pridaj vlastnu verziu tohto torrentu +


    Upozornenie:
    Ziadny zo zobrazených súborov sa nenachádza na tomto serveri. Server slúzi len k síreniu vlastnorucne vytvorených aplikácií, videí, hudby ai. Autori stránok nenesú ziadnu zodpovednost za zverejnené odkazy, komentáre a obsah súborov. Vsetky komentáre, odkazy, súbory ktoré by svojou povahou mohli byt v rozpore zo zákonmi sem vkladáte na vlastnú zodpovednost. Autori stránok si vyhradzujú právo cenzúry odkazov, komentárov príp. súborov, ktoré by svojou povahou mohli byt v rozpore zo zákonmi a dobrými mravmi. Dodrzujte pravidlá!





    0
    martinszabolc
    Ratio 0.16

    Clen

    09/10/2022 20.29.08
    Všetky tieto .mp4 stoja za ho*no. sklbe sa obraz.

    0
    ZASAonSK
    Ratio 14.35

    Member+

    26/09/2022 17.57.39
    16tu epizódu máš z voyo ?  


    --------------
    >> 26/09/2022 18.23.41
    UPLOADER: Tak zlepil som to cez kamosov, aby si to ludia mohli spatne pozriet pohodlne. Takto budem pokracovat, vzdy par casti naraz, lebo nemam moc casu.


    --------------
    >> 26/09/2022 18.29.06
    ZASAonSK: ja len tak lebo by som chcel vedieť ako sťahovať z voyo


    --------------
    >> 26/09/2022 18.39.59
    UPLOADER: Rozumiem , ja som tieto nestiahol sam.


    Back

    Na serveru se nenalézají zádne soubory. Za odkazy jsou výhradně zodpovědní uzivatelé a návstěvníci tohoto trackeru. Administrátor není zodpovědný za pridaný obsah ani za skody zpusobené uzivateli. Nesmíte pouzívat tuto webovou stránku pro distribuovaní nebo download zádného materiálu pokud nemáte povolení od príslusného vlastníka práv. Uzivatelé jsou zodpovědní za dodrzování těchto pravidel a podmínek. Owner má právo kdykoliv změnit pravidla tohoto trackeru.

    [ Script trval: 0.019 sec. ] - [ GZIP: enabled ]
    Je zhruba 16:18
    memcache

    TOPlist