Tvoj účet nieje VIP.
Preto sú tvoje funkcie a možnosti značne obmedzené.
Pre aktiváciu VIP klikni sem.

Fenomen / Phenomenon (1996)(CZ/EN)[1080p][Remux] = CSFD 76% | SkTorrent.eu

Cz-SkTorrent open Tracker, na volné zdielanie súborov. Pridajte sa k nasej komunite a získajte pristup k tisícom torrentov.

  • vysoká rýchlost
  • úplne zdarma
  • prevazne Slovenska a Ceska scena
  • ste tu s nami uz 5 rokov - Dakujeme
  • Vitaj Guest (Login) Ako stahovat
    torrenty?
    Torrenty:
    v1 textová
    v2 obrázková
    v3 online filmy
    Ako sa stat
    Uploaderom
    Online
    Filmy
    Forum
    Pravidlá
    BitTorrent
    klient
    pruzinky
    Meno: Heslo:
    Zaregistrovat
    Po zaregistrovaní mozte volne stahovat
    Zabudol som heslo

    Torrent's details
    Fenomen / Phenomenon (1996)(CZ/EN)[1080p][Remux] = CSFD 76% Názov:Fenomen / Phenomenon (1996)(CZ/EN)[1080p][Remux] = CSFD 76% Hodnocení: Stiahnut
    Pozriet Online
    Kategória:HD Filmy Velikost:26.3 GB BitTorrent klient
    Pridaný: Súbory:
    Skontrolován:2020-05-10 Peerov:2 (Seed: 2, Leech: 0)
    Zaner:Drama,Fantasy,Romanticky,Sci-Fi Uploader:Uvidis, az ked budes
    VIP
    Kúp nám Pivo 1,10€

    Kúp nám Pivo
    Podporte nas na Facebooku !
    Pridaj do zalozky
    Pridaj do zalozky






    Fenomén / Phenomenon (1996)(CZ/EN)



    Jazyk: CZ / EN
    Titulky: EN / RU
    Kvalita zvuku: viz Media info
    Kvalita videa: viz Media info
    Odkaz na CSFD: http://www.csfd.cz/film/9194-fenomen/
    Rok vydání: 1996
    Délka:  1h 58mn
    Žánr:  Drama / Romantický / Fantasy / Sci-Fi

    Obsah:
    Až do svých sedmatřicátých narozenin byl George docela obyčejným automechanikem v malém kalifornském městečku Harmon. Ovšem do chvíle, kdy si odskočil z oslavy ven před hospodu, aby se nadýchal čerstvého vzduchu, změnila jeho život. Na jasné noční obloze se mezi miliony hvězd objevil zářící bod a blížil se přímo k Georgeovi. Oslepující záře ho na okamžik připravila o vědomí. Když s pak vrátil mezi své přátele, byl jiným člověkem. Dal dvěma tahy mat místnímu lékaři - přeborníkovi v šachu a odešel domů, kde se během noci ze slovníku naučil španělsky. Všechno je najednou tak snadné ! George čte čtyři knihy denně a s mozkem pracujícím na plné obrátky chrlí nápad za nápadem. Sestrojil automobil, který jezdí skoro zadarmo. Objeví princip akumulování sluneční energie. jeho nový typ organického hnojiva mění úhor v úrodnou černozem a jen tak z legrace rozkóduje složitou armádní šifru a zruší důležité vojenské cvičení na nedaleké letecké základně. Pouze jedna záležitost dělá Georgeovi po jeho zázračné proměně stejné problémy jako dřív. Krásní sousedka, obávající se z dalšího milostného zklamání, vytrvale odolává Georgeovým nesmělým pokusům o dvoření. A když se začnou věci i v tomto směru obracet k lepšímu, vtrhnou do Georgeova domu agenti FBI, aby zatkli domnělého špióna, který tak snadno rozlouskl vojenské kódy...

    General

    Complete name                  : F:\FILM US\Phenomenon (1996).mkv
    Format                         : Matroska
    Format version                 : Version 4
    File size                      : 26.3 GiB
    Duration                       : 2 h 3 min
    Overall bit rate mode          : Variable
    Overall bit rate               : 30.5 Mb/s
    Movie name                     : Fenomen.1996.BDRemux.BLUEBIRD
    Encoded date                   : UTC 2018-09-26 06:14:43
    Writing application            : mkvmerge v26.0.0 ('In The Game') 64-bit
    Writing library                : libebml v1.3.6 + libmatroska v1.4.9

    Video
    ID                             : 1
    Format                         : AVC
    Format/Info                    : Advanced Video Codec
    Format profile                 : High@L4.1
    Format settings                : CABAC / 4 Ref Frames
    Format settings, CABAC         : Yes
    Format settings, Reference fra : 4 frames
    Codec ID                       : V_MPEG4/ISO/AVC
    Duration                       : 2 h 3 min
    Bit rate mode                  : Variable
    Bit rate                       : 26.3 Mb/s
    Maximum bit rate               : 34.0 Mb/s
    Width                          : 1 920 pixels
    Height                         : 1 080 pixels
    Display aspect ratio           : 16:9
    Frame rate mode                : Constant
    Frame rate                     : 23.976 (24000/1001) FPS
    Color space                    : YUV
    Chroma subsampling             : 4:2:0
    Bit depth                      : 8 bits
    Scan type                      : Progressive
    Bits/(Pixel*Frame)             : 0.529
    Stream size                    : 22.7 GiB (86%)
    Title                          : BD
    Default                        : Yes
    Forced                         : No

    Audio #1
    ID                             : 2
    Format                         : DTS XLL
    Format/Info                    : Digital Theater Systems
    Commercial name                : DTS-HD Master Audio
    Codec ID                       : A_DTS
    Duration                       : 2 h 3 min
    Bit rate mode                  : Variable
    Bit rate                       : 4 111 kb/s
    Channel(s)                     : 6 channels
    Channel layout                 : C L R Ls Rs LFE
    Sampling rate                  : 48.0 kHz
    Frame rate                     : 93.750 FPS (512 SPF)
    Bit depth                      : 24 bits
    Compression mode               : Lossless
    Stream size                    : 3.54 GiB (13%)
    Title                          : DTS-MA 5.1
    Language                       : English
    Default                        : No
    Forced                         : No

    Audio #2
    ID                             : 5
    Format                         : AAC LC
    Format/Info                    : Advanced Audio Codec Low Complexity
    Codec ID                       : A_AAC-2
    Duration                       : 2 h 3 min
    Bit rate                       : 130 kb/s
    Channel(s)                     : 2 channels
    Channel layout                 : L R
    Sampling rate                  : 48.0 kHz
    Frame rate                     : 46.875 FPS (1024 SPF)
    Compression mode               : Lossy
    Delay relative to video        : 120 ms
    Stream size                    : 114 MiB (0%)
    Title                          : DD 2.0
    Language                       : Czech
    Default                        : Yes
    Forced                         : No

    Text #1
    ID                             : 3
    Format                         : UTF-8
    Codec ID                       : S_TEXT/UTF8
    Codec ID/Info                  : UTF-8 Plain Text
    Duration                       : 1 h 58 min
    Bit rate                       : 98 b/s
    Count of elements              : 1419
    Stream size                    : 85.6 KiB (0%)
    Language                       : Russian
    Default                        : No
    Forced                         : No

    Text #2
    ID                             : 4
    Format                         : UTF-8
    Codec ID                       : S_TEXT/UTF8
    Codec ID/Info                  : UTF-8 Plain Text
    Duration                       : 1 h 56 min
    Bit rate                       : 65 b/s
    Count of elements              : 1517
    Stream size                    : 55.7 KiB (0%)
    Language                       : English
    Default                        : No
    Forced                         : No




    CZ dabing









    filename, Threadt, TiborPorter, strahap, steve369, hynee,

    + Pridaj vlastnu verziu tohto torrentu +


    Upozornenie:
    Ziadny zo zobrazených súborov sa nenachádza na tomto serveri. Server slúzi len k síreniu vlastnorucne vytvorených aplikácií, videí, hudby ai. Autori stránok nenesú ziadnu zodpovednost za zverejnené odkazy, komentáre a obsah súborov. Vsetky komentáre, odkazy, súbory ktoré by svojou povahou mohli byt v rozpore zo zákonmi sem vkladáte na vlastnú zodpovednost. Autori stránok si vyhradzujú právo cenzúry odkazov, komentárov príp. súborov, ktoré by svojou povahou mohli byt v rozpore zo zákonmi a dobrými mravmi. Dodrzujte pravidlá!




    Uploader
    10/05/2020 19.38.24
    Rado sa stalo...:o)

    0
    Threadt
    Ratio 5.83

    Odbornik

    10/05/2020 19.31.32
    Dík, Upe.


    Back

    Na serveru se nenalézají zádne soubory. Za odkazy jsou výhradně zodpovědní uzivatelé a návstěvníci tohoto trackeru. Administrátor není zodpovědný za pridaný obsah ani za skody zpusobené uzivateli. Rozsirovat stránku nebo její obsah bez souhlasu ownera je zakázano. Nesmíte pouzívat tuto webovou stránku pro distribuovaní nebo download zádného materiálu pokud nemáte povolení od príslusného vlastníka práv. Uzivatelé jsou zodpovědní za dodrzování těchto pravidel a podmínek. Owner má právo kdykoliv změnit pravidla tohoto trackeru.

    [ Script trval: 0.026 sec. ] - [ GZIP: enabled ]
    BtiTracker (1.4.8) by Btiteam
    Je zhruba 21:59

    TOPlist