Tvoj účet nieje VIP.
Preto sú tvoje funkcie a možnosti značne obmedzené.
Pre aktiváciu VIP klikni sem.

Final Fantasy: Esence zivota / Final Fantasy: The Spirits Within (CZ/EN)(BDRip)(1080p)(2001) = CSFD 67% | SkTorrent.eu

Cz-SkTorrent open Tracker, na volné zdieľanie súborov. Pridajte sa k našej komunite a získajte prístup k tisícom torrentov.

  • vysoká rýchlosť
  • úplne zdarma
  • prevažne Slovenská a Česká scéna
  • ste tu s nami už 10 rokov - Ďakujeme
  • Vitaj Guest (Login) Ako stahovat
    torrenty?
    Torrenty:
    v1 textová
    v2 obrázková
    Ako sa stat
    Uploaderom
    Online
    Filmy
    Forum
    Pravidlá
    SkTSocial
    BitTorrent
    klient
    Meno: Heslo:
    Zaregistrovat
    Po zaregistrovaní mozte volne stahovat
    Zabudol som heslo

    Final Fantasy: Esence zivota / Final Fantasy: The Spirits Within (CZ/EN)(BDRip)(1080p)(2001) = CSFD 67% Názov:Final Fantasy: Esence zivota / Final Fantasy: The Spirits Within (CZ/EN)(BDRip)(1080p)(2001) = CSFD 67% Hodnocení: Stiahnut
    Pozriet Online
    Kategória:HD Filmy - cz,eng Velikost:8.1 GB BitTorrent klient
    Pridaný: Súbory:
    Skontrolován:2022-12-03 Peerov:10 (Seed: 10, Leech: 0)
    Zaner:Animovany,Dobrodruzny,Fantasy,Sci-Fi Uploader:Uvidis, az ked budes
    VIP
    Kúp nám Pivo 1,10€

    Kúp nám Pivo

    Pridaj do zalozky
    Pridaj do zalozky











    Video: 1080p MKV
    Audio : CZ/EN Dabing
    Titulky : CZ


    Animovaný / Fantasy / Dobrodružný / Sci-Fi
    USA / Japonsko, 2001, 106 min





    Náhled





    Je rok 2065. Země je v obležení. Při nárazu meteoru se na naši planetu dostaly milióny podivných bytostí, které decimují venkov i města a hrozí, že zadusí ostatní život na Zemi. Lidi zabíjejí tím, že si podmaňují jejich duše. Ti, kteří zatím přežili, začínají opevňovat svá města, aby se vetřelcům ubránili. Ale čas běží... Poslední záchranou lidstva je krásná a inteligentní Dr. Aki Ross, která je rozhodnutá věnovat všechny své schopnosti na boj s vetřelci z vesmíru. Pod vedením svého učitele Dr. Sida a za pomoci vojenské jednotky Deep Eye, v jejímž čele stojí odvážný kapitán Gray Edwards, se Aki vydává do boje za záchranu Země i sebe. Dostane se do myšlení vetřelců a získá klíč k odhalení jejich tajemství. Proti ní však stojí generál Hein. Chce proti ní použít zbraň, která by zničila celou Zemi. (oficiální text distributora



    Formát                                   : Matroska
    Format version                           : Version 1
    Velikost souboru                         : 8,07 GiB
    Duration                                 : 1 h 45 min
    Celkový BitRate                          : 10,9 Mb/s
    Encoded date                             : UTC 2009-04-29 21:27:52
    Použitý software                         : mkvmerge v2.5.1 ('He Wasn't There') built on Feb 22 2009 18:19:47
    Enkódoval                                : libebml v0.7.7 + libmatroska v0.8.1

    Video
    ID                                       : 1
    Formát                                   : AVC
    Formát/Info                              : Advanced Video Codec
    Format profile                           : Main@L4.1
    Format settings                          : CABAC / 4 Ref Frames
    Format settings, CABAC                   : Ano
    Format settings, Reference frames        : 4 frames
    Codec ID                                 : V_MPEG4/ISO/AVC
    Duration                                 : 1 h 45 min
    Bit rate                                 : 10,1 Mb/s
    Šířka                                    : 1 920pixely
    Výška                                    : 1 040pixely
    Poměr stran                              : 1,85:1
    Frame rate mode                          : Constant
    Frame rate                               : 23,976 FPS
    Color space                              : YUV
    Chroma subsampling                       : 4:2:0
    Bit depth                                : 8 bits
    Scan type                                : Progressive
    Bits/(Pixel*Frame)                       : 0.211
    Stream size                              : 7,30 GiB (90%)
    Enkódoval                                : x264 core 60
    Nastavení enkoderu                       : cabac=1 / ref=4 / deblock=1:-3:-3 / analyse=0x1:0x111 / me=umh / subme=6 / psy_rd=1.000000 / brdo=1 / mixed_ref=1 / me_range=16 / chroma_me=1 / trellis=0 / 8x8dct=0 / cqm=0 / deadzone=10,6 / chroma_qp_offset=0 / threads=6 / nr=0 / decimate=1 / mbaff=0 / bframes=3 / b_pyramid=1 / b_adapt=1 / b_bias=0 / direct=1 / wpredb=1 / bime=1 / keyint=250 / keyint_min=25 / scenecut=40(pre) / rc=2pass / bitrate=10092 / ratetol=1.0 / rceq='blurCplx^(1-qComp)' / qcomp=1.00 / qpmin=10 / qpmax=51 / qpstep=4 / cplxblur=20.0 / qblur=0.5 / ip_ratio=1.40 / pb_ratio=1.30 / aq=2:1.50
    Default                                  : Ano
    Forced                                   : Ne

    Audio #1
    ID                                       : 2
    Formát                                   : AC-3
    Formát/Info                              : Audio Coding 3
    Commercial name                          : Dolby Digital
    Codec ID                                 : A_AC3
    Duration                                 : 1 h 45 min
    Bit rate mode                            : Constant
    Bit rate                                 : 192 kb/s
    Kanál(y)                                 : 2 kanály
    Channel layout                           : L R
    Sampling rate                            : 48,0 kHz
    Frame rate                               : 31,250 FPS (1536 SPF)
    Compression mode                         : Lossy
    Video delay                              : 50 ms
    Stream size                              : 146 MiB (2%)
    Jazyk                                    : Czech
    Service kind                             : Complete Main
    Default                                  : Ano
    Forced                                   : Ne

    Audio #2
    ID                                       : 3
    Formát                                   : AC-3
    Formát/Info                              : Audio Coding 3
    Commercial name                          : Dolby Digital
    Codec ID                                 : A_AC3
    Duration                                 : 1 h 45 min
    Bit rate mode                            : Constant
    Bit rate                                 : 640 kb/s
    Kanál(y)                                 : 6 kanály
    Channel layout                           : L R C LFE Ls Rs
    Sampling rate                            : 48,0 kHz
    Frame rate                               : 31,250 FPS (1536 SPF)
    Compression mode                         : Lossy
    Stream size                              : 485 MiB (6%)
    Titul                                    : AC3
    Jazyk                                    : English
    Service kind                             : Complete Main
    Default                                  : Ne
    Forced                                   : Ne

    Text
    ID                                       : 4
    Formát                                   : UTF-8
    Codec ID                                 : S_TEXT/UTF8
    Codec ID/Info                            : UTF-8 Plain Text
    Jazyk                                    : Czech
    Default                                  : Ano
    Forced                                   : Ne


















    Loffi, Adrian321, Nightroad, Jablonka,

    + Pridaj vlastnu verziu tohto torrentu +


    Upozornenie:
    Ziadny zo zobrazených súborov sa nenachádza na tomto serveri. Server slúzi len k síreniu vlastnorucne vytvorených aplikácií, videí, hudby ai. Autori stránok nenesú ziadnu zodpovednost za zverejnené odkazy, komentáre a obsah súborov. Vsetky komentáre, odkazy, súbory ktoré by svojou povahou mohli byt v rozpore zo zákonmi sem vkladáte na vlastnú zodpovednost. Autori stránok si vyhradzujú právo cenzúry odkazov, komentárov príp. súborov, ktoré by svojou povahou mohli byt v rozpore zo zákonmi a dobrými mravmi. Dodrzujte pravidlá!


    No comments...


    Back

    Na serveru se nenalézají zádne soubory. Za odkazy jsou výhradně zodpovědní uzivatelé a návstěvníci tohoto trackeru. Administrátor není zodpovědný za pridaný obsah ani za skody zpusobené uzivateli. Nesmíte pouzívat tuto webovou stránku pro distribuovaní nebo download zádného materiálu pokud nemáte povolení od príslusného vlastníka práv. Uzivatelé jsou zodpovědní za dodrzování těchto pravidel a podmínek. Owner má právo kdykoliv změnit pravidla tohoto trackeru.

    [ Script trval: 0.123 sec. ] - [ GZIP: enabled ]
    Je zhruba 19:22
    memcache

    TOPlist