Tvoj účet nieje VIP.
Preto sú tvoje funkcie a možnosti značne obmedzené.
Pre aktiváciu VIP klikni sem.

Flash Gordon (1980)(Remastered)(BluRay)(1080p)(2xCZ-3xEN) = CSFD 69% | SkTorrent.eu

Cz-SkTorrent open Tracker, na volné zdielanie súborov. Pridajte sa k nasej komunite a získajte pristup k tisícom torrentov.

  • vysoká rýchlost
  • úplne zdarma
  • prevazne Slovenska a Ceska scena
  • ste tu s nami uz 5 rokov - Dakujeme
  • Vitaj Guest (Login) Ako stahovat
    torrenty?
    Torrenty:
    v1 textová
    v2 obrázková
    v3 online filmy
    Ako sa stat
    Uploaderom
    Online
    Filmy
    Forum
    Pravidlá
    BitTorrent
    klient
    Meno: Heslo:
    Zaregistrovat
    Po zaregistrovaní mozte volne stahovat
    Zabudol som heslo

    Torrent's details
    Flash Gordon (1980)(Remastered)(BluRay)(1080p)(2xCZ-3xEN) = CSFD 69% Názov:Flash Gordon (1980)(Remastered)(BluRay)(1080p)(2xCZ-3xEN) = CSFD 69% Hodnocení: Stiahnut
    Pozriet Online
    Kategória:HD Filmy Velikost:9.2 GB BitTorrent klient
    Pridaný: Súbory:
    Skontrolován:2021-08-02 Peerov:14 (Seed: 13, Leech: 1)
    Zaner:Dobrodruzny,Fantasy,Sci-Fi Uploader:Uvidis, az ked budes
    VIP
    Kúp nám Pivo 1,10€

    Kúp nám Pivo
    Podporte nas na Facebooku !
    Pridaj do zalozky
    Pridaj do zalozky








    Flash Gordon (1980) (Remastered)
    BleRay rip ( Verze 2010) 2xCZ DD 5.1/2.0 dabing
    a EN DTS/DD 5.1/2.0 dabing + CZ/EN tit

                   










    Sci-Fi / Dobrodružný / Fantasy
    Velká Británie / USA, 1980, 111 min
    Režie: Mike Hodges
    Scénář: Michael Allin, Lorenzo Semple Jr.
    Kamera: Gilbert Taylor
    Hudba: Howard Blake, Queen
    Hrají: Sam J. Jones, Melody Anderson, Max von Sydow, Chaim Topol, Ornella Muti, Timothy Dalton, Brian Blessed, Peter Wyngarde, Mariangela Melato,




    Imperátor Ming si náhodou všimne nepatrnú planétu v Slnečnej sústave a rozhodne sa ju len tak z rozmaru zničiť. Proti sebe má však typického kladného hrdinu Flasha Gordona, ktorého doprevádzajú šialený vedec Hans Zarkov a pohľadná Dale Arden. Spracovanie klasického komixového hrdinu na filmové plátno obohatili nielen mnohí známi herci, ale aj soundtrack od skupiny Queen.








    Formát                                   : Matroska
    Format version                           : Version 4
    Velikost souboru                         : 9,25 GiB
    Duration                                 : 1 h 51 min
    Celkový BitRate                          : 11,9 Mb/s
    Název filmu                              : Flash Gordon (1980)(Remastered)(BluRay)(1080p)(CZ-EN) PHDTeam 2021
    Encoded date                             : UTC 2021-08-02 18:48:09
    Použitý software                         : mkvmerge v60.0.0 ('Are We Copies?') 64-bit
    Enkódoval                                : libebml v1.4.2 + libmatroska v1.6.4

    Video
    ID                                       : 1
    Formát                                   : AVC
    Formát/Info                              : Advanced Video Codec
    Format profile                           : High@L4.1
    Format settings                          : CABAC / 5 Ref Frames
    Format settings, CABAC                   : Ano
    Format settings, Reference frames        : 5 frames
    Codec ID                                 : V_MPEG4/ISO/AVC
    Duration                                 : 1 h 51 min
    Bit rate                                 : 8 694 kb/s
    Šířka                                    : 1 920pixely
    Výška                                    : 824pixely
    Poměr stran                              : 2,35:1
    Frame rate mode                          : Constant
    Frame rate                               : 24,000 FPS
    Color space                              : YUV
    Chroma subsampling                       : 4:2:0
    Bit depth                                : 8 bits
    Scan type                                : Progressive
    Bits/(Pixel*Frame)                       : 0.229
    Stream size                              : 6,77 GiB (73%)
    Titul                                    : Flash Gordon (1980)(Remastered)(BluRay)(1080p)(CZ-EN) PHDTeam
    Enkódoval                                : x264 core 94 r1583 7608d73
    Nastavení enkoderu                       : cabac=1 / ref=5 / deblock=1:0:0 / analyse=0x3:0x113 / me=umh / subme=7 / psy=1 / psy_rd=1.00:0.15 / mixed_ref=1 / me_range=16 / chroma_me=1 / trellis=1 / 8x8dct=1 / cqm=0 / deadzone=21,11 / fast_pskip=0 / chroma_qp_offset=-3 / threads=6 / sliced_threads=0 / nr=0 / decimate=1 / interlaced=0 / constrained_intra=0 / bframes=3 / b_pyramid=2 / b_adapt=1 / b_bias=0 / direct=1 / weightb=1 / weightp=2 / keyint=250 / keyint_min=25 / scenecut=40 / intra_refresh=0 / rc_lookahead=40 / rc=2pass / mbtree=1 / bitrate=8694 / ratetol=1.0 / qcomp=0.60 / qpmin=10 / qpmax=51 / qpstep=4 / cplxblur=20.0 / qblur=0.5 / ip_ratio=1.40 / aq=1:1.00
    Jazyk                                    : English
    Default                                  : Ano
    Forced                                   : Ne

    Audio #1
    ID                                       : 2
    Formát                                   : AC-3
    Formát/Info                              : Audio Coding 3
    Commercial name                          : Dolby Digital
    Codec ID                                 : A_AC3
    Duration                                 : 1 h 51 min
    Bit rate mode                            : Constant
    Bit rate                                 : 640 kb/s
    Kanál(y)                                 : 6 kanály
    Channel layout                           : L R C LFE Ls Rs
    Sampling rate                            : 48,0 kHz
    Frame rate                               : 31,250 FPS (1536 SPF)
    Compression mode                         : Lossy
    Stream size                              : 510 MiB (5%)
    Titul                                    : CZ AC3 DD 5.1 BD audio
    Jazyk                                    : Czech
    Service kind                             : Complete Main
    Default                                  : Ano
    Forced                                   : Ne

    Audio #2
    ID                                       : 3
    Formát                                   : DTS
    Formát/Info                              : Digital Theater Systems
    Codec ID                                 : A_DTS
    Duration                                 : 1 h 51 min
    Bit rate mode                            : Constant
    Bit rate                                 : 1 509 kb/s
    Kanál(y)                                 : 6 kanály
    Channel layout                           : C L R Ls Rs LFE
    Sampling rate                            : 48,0 kHz
    Frame rate                               : 93,750 FPS (512 SPF)
    Bit depth                                : 24 bits
    Compression mode                         : Lossy
    Stream size                              : 1,17 GiB (13%)
    Titul                                    : EN DTS 5.1
    Jazyk                                    : English
    Default                                  : Ne
    Forced                                   : Ne

    Audio #3
    ID                                       : 4
    Formát                                   : AC-3
    Formát/Info                              : Audio Coding 3
    Commercial name                          : Dolby Digital
    Codec ID                                 : A_AC3
    Duration                                 : 1 h 51 min
    Bit rate mode                            : Constant
    Bit rate                                 : 640 kb/s
    Kanál(y)                                 : 6 kanály
    Channel layout                           : L R C LFE Ls Rs
    Sampling rate                            : 48,0 kHz
    Frame rate                               : 31,250 FPS (1536 SPF)
    Compression mode                         : Lossy
    Stream size                              : 510 MiB (5%)
    Titul                                    : EN AC3 DD 5.1
    Jazyk                                    : English
    Service kind                             : Complete Main
    Default                                  : Ne
    Forced                                   : Ne

    Audio #4
    ID                                       : 5
    Formát                                   : AC-3
    Formát/Info                              : Audio Coding 3
    Commercial name                          : Dolby Digital
    Format settings                          : Dolby Surround
    Codec ID                                 : A_AC3
    Duration                                 : 1 h 51 min
    Bit rate mode                            : Constant
    Bit rate                                 : 192 kb/s
    Kanál(y)                                 : 2 kanály
    Channel layout                           : L R
    Sampling rate                            : 48,0 kHz
    Frame rate                               : 31,250 FPS (1536 SPF)
    Compression mode                         : Lossy
    Stream size                              : 153 MiB (2%)
    Titul                                    : CZ AC3 DD 2.0 púvodní dabing
    Jazyk                                    : Czech
    Service kind                             : Complete Main
    Default                                  : Ano
    Forced                                   : Ne

    Audio #5
    ID                                       : 6
    Formát                                   : AC-3
    Formát/Info                              : Audio Coding 3
    Commercial name                          : Dolby Digital
    Format settings                          : Dolby Surround
    Codec ID                                 : A_AC3
    Duration                                 : 1 h 51 min
    Bit rate mode                            : Constant
    Bit rate                                 : 192 kb/s
    Kanál(y)                                 : 2 kanály
    Channel layout                           : L R
    Sampling rate                            : 48,0 kHz
    Frame rate                               : 31,250 FPS (1536 SPF)
    Compression mode                         : Lossy
    Stream size                              : 153 MiB (2%)
    Titul                                    : EN AC3 DD 2.0
    Jazyk                                    : English
    Service kind                             : Complete Main
    Default                                  : Ne
    Forced                                   : Ne

    Text #1
    ID                                       : 7
    Formát                                   : UTF-8
    Codec ID                                 : S_TEXT/UTF8
    Codec ID/Info                            : UTF-8 Plain Text
    Duration                                 : 1 h 47 min
    Bit rate                                 : 44 b/s
    Count of elements                        : 1090
    Stream size                              : 34,6 KiB (0%)
    Titul                                    : CZ tit
    Jazyk                                    : Czech
    Default                                  : Ne
    Forced                                   : Ne

    Text #2
    ID                                       : 8
    Formát                                   : UTF-8
    Codec ID                                 : S_TEXT/UTF8
    Codec ID/Info                            : UTF-8 Plain Text
    Duration                                 : 1 h 46 min
    Bit rate                                 : 36 b/s
    Count of elements                        : 705
    Stream size                              : 28,8 KiB (0%)
    Titul                                    : En tit
    Jazyk                                    : English
    Default                                  : Ne
    Forced                                   : Ne

    Text #3
    ID                                       : 9
    Formát                                   : PGS
    Muxing mode                              : zlib
    Codec ID                                 : S_HDMV/PGS
    Codec ID/Info                            : Picture based subtitle format used on BDs/HD-DVDs
    Duration                                 : 1 h 47 min
    Bit rate                                 : 21,9 kb/s
    Count of elements                        : 1978
    Stream size                              : 16,7 MiB (0%)
    Titul                                    : CZ tit
    Jazyk                                    : Czech
    Default                                  : Ne
    Forced                                   : Ne

    Text #4
    ID                                       : 10
    Formát                                   : UTF-8
    Codec ID                                 : S_TEXT/UTF8
    Codec ID/Info                            : UTF-8 Plain Text
    Duration                                 : 1 h 46 min
    Bit rate                                 : 36 b/s
    Count of elements                        : 702
    Stream size                              : 28,7 KiB (0%)
    Titul                                    : EN tit
    Jazyk                                    : English
    Default                                  : Ne
    Forced                                   : Ne









    ONLINE











    Threadt, kari1989, Carter83, jarek7, VGer, Trismegistos, M4Ri0Cz, Jablonka, stromtom,

    + Pridaj vlastnu verziu tohto torrentu +


    Upozornenie:
    Ziadny zo zobrazených súborov sa nenachádza na tomto serveri. Server slúzi len k síreniu vlastnorucne vytvorených aplikácií, videí, hudby ai. Autori stránok nenesú ziadnu zodpovednost za zverejnené odkazy, komentáre a obsah súborov. Vsetky komentáre, odkazy, súbory ktoré by svojou povahou mohli byt v rozpore zo zákonmi sem vkladáte na vlastnú zodpovednost. Autori stránok si vyhradzujú právo cenzúry odkazov, komentárov príp. súborov, ktoré by svojou povahou mohli byt v rozpore zo zákonmi a dobrými mravmi. Dodrzujte pravidlá!





    0
    matkowic
    Ratio 1



    05/08/2021 14.39.55
    Poprosím o komplet 1080p Prci, prci, prcičky (American Pie)1999-2020.
    JAZYK: CZ(2-3x)SK(x),EN.
    TITULKY: CZ FULL/FORCED srt.

    Každá časť ak by bolo možne do 12GB

    Dakujem



    --------------
    >> 05/08/2021 20.08.57
    UPLOADER: uvidíme... ted neni cas  až tak budúci tejden...

    0
    TomasA
    Ratio 1.89

    Member+

    03/08/2021 12.15.37
    Kdyby nekdo mel zajem mam i ve 4k
    Uploader
    02/08/2021 21.58.30
    Dakujem vám chalani.. i za bodíky


    --------------
    >> 02/08/2021 22.36.09
    Hunter99: A jak to vypada s tim SW?


    --------------
    >> 02/08/2021 22.54.06
    UPLOADER: ako som pisal dnes nebo zitra.. možná


    Back

    Na serveru se nenalézají zádne soubory. Za odkazy jsou výhradně zodpovědní uzivatelé a návstěvníci tohoto trackeru. Administrátor není zodpovědný za pridaný obsah ani za skody zpusobené uzivateli. Rozsirovat stránku nebo její obsah bez souhlasu ownera je zakázano. Nesmíte pouzívat tuto webovou stránku pro distribuovaní nebo download zádného materiálu pokud nemáte povolení od príslusného vlastníka práv. Uzivatelé jsou zodpovědní za dodrzování těchto pravidel a podmínek. Owner má právo kdykoliv změnit pravidla tohoto trackeru.

    [ Script trval: 0.053 sec. ] - [ GZIP: enabled ]
    Je zhruba 15:17

    TOPlist