Tvoj účet nieje VIP.
Preto sú tvoje funkcie a možnosti značne obmedzené.
Pre aktiváciu VIP klikni sem.

Formula 1 - Drive to Survive / F1: Touha po vitezstvi (S04)(2022)(Complete)(FHD)(1080p)(HDR)(Hevc)(WebDL)(Multilang)(MultiSUB) = CSFD 94% | SkTorrent.eu

Cz-SkTorrent open Tracker, na volné zdieľanie súborov. Pridajte sa k našej komunite a získajte prístup k tisícom torrentov.

  • vysoká rýchlosť
  • úplne zdarma
  • prevažne Slovenská a Česká scéna
  • ste tu s nami už 10 rokov - Ďakujeme
  • Vitaj Guest (Login) Ako stahovat
    torrenty?
    Torrenty:
    v1 textová
    v2 obrázková
    Ako sa stat
    Uploaderom
    Online
    Filmy
    Forum
    Pravidlá
    SkTSocial
    BitTorrent
    klient
    Meno: Heslo:
    Zaregistrovat
    Po zaregistrovaní mozte volne stahovat
    Zabudol som heslo

    Formula 1 - Drive to Survive / F1: Touha po vitezstvi (S04)(2022)(Complete)(FHD)(1080p)(HDR)(Hevc)(WebDL)(Multilang)(MultiSUB) = CSFD 94% Názov:Formula 1 - Drive to Survive / F1: Touha po vitezstvi (S04)(2022)(Complete)(FHD)(1080p)(HDR)(Hevc)(WebDL)(Multilang)(MultiSUB) = CSFD 94% Hodnocení: Stiahnut
    Pozriet Online
    Kategória:Seriál - Velikost:15.0 GB BitTorrent klient
    Pridaný: Súbory:
    Skontrolován:2023-02-20 Peerov:3 (Seed: 1, Leech: 2)
    Zaner:Dokumentarny,Sportovni Uploader:Uvidis, az ked budes
    VIP
    Kúp nám Pivo 1,10€

    Kúp nám Pivo

    Pridaj do zalozky
    Pridaj do zalozky




    [center]







    Movie Name:  Formula 1 - Drive to Survive (S04)(2022)(Complete)(HDR)
    IMDb Rating: 8.6/10

    Quality: 1080p (WebDL)
    Language: E-AC-3 5.1 640kb/s - English (Atmos), Germany , Polish , Czech , Hungarian
    Subtitles: Multi
    Director: Nick Hardie, James Routh, Nonuk Walter, Martin Webb
    Creator:
    Genres: Dokumentary | Sport |


    Docuseries following the FIA Formula One World Championship across multiple seasons.




    [/center]
    Format                                   : Matroska
    Format version                           : Version 4
    File size                                : 1.29 GiB
    Duration                                 : 39 min 50 s
    Overall bit rate                         : 4 637 kb/s
    Movie name                               : Souboj titánů
    Encoded date                             : UTC 2023-02-07 17:11:44
    Writing application                      : mkvmerge v68.0.0 ('The Curtain') 64-bit
    Writing library                          : libebml v1.4.2 + libmatroska v1.6.4

    Video
    ID                                       : 1
    Format                                   : HEVC
    Format/Info                              : High Efficiency Video Coding
    Format profile                           : Main 10@L4.1@Main
    HDR format                               : SMPTE ST 2086, HDR10 compatible
    Codec ID                                 : V_MPEGH/ISO/HEVC
    Duration                                 : 38 min 44 s
    Bit rate                                 : 1 340 kb/s
    Width                                    : 1 920 pixels
    Height                                   : 1 080 pixels
    Display aspect ratio                     : 16:9
    Frame rate mode                          : Constant
    Frame rate                               : 50.000 FPS
    Color space                              : YUV
    Chroma subsampling                       : 4:2:0 (Type 2)
    Bit depth                                : 10 bits
    Bits/(Pixel*Frame)                       : 0.013
    Stream size                              : 371 MiB (28%)
    Default                                  : Yes
    Forced                                   : No
    Color range                              : Limited
    Color primaries                          : BT.2020
    Transfer characteristics                 : PQ
    Matrix coefficients                      : BT.2020 non-constant
    Mastering display color primaries        : Display P3
    Mastering display luminance              : min: 0.0001 cd/m2, max: 1000 cd/m2
    Maximum Content Light Level              : 1547 cd/m2
    Maximum Frame-Average Light Level        : 722 cd/m2

    Audio #1
    ID                                       : 2
    Format                                   : E-AC-3
    Format/Info                              : Enhanced AC-3
    Commercial name                          : Dolby Digital Plus
    Codec ID                                 : A_EAC3
    Duration                                 : 39 min 50 s
    Bit rate mode                            : Constant
    Bit rate                                 : 640 kb/s
    Channel(s)                               : 6 channels
    Channel layout                           : L R C LFE Ls Rs
    Sampling rate                            : 48.0 kHz
    Frame rate                               : 31.250 FPS (1536 SPF)
    Compression mode                         : Lossy
    Stream size                              : 182 MiB (14%)
    Title                                    : čeština
    Language                                 : Czech
    Service kind                             : Complete Main
    Default                                  : Yes
    Forced                                   : No

    Audio #2
    ID                                       : 3
    Format                                   : E-AC-3
    Format/Info                              : Enhanced AC-3
    Commercial name                          : Dolby Digital Plus
    Codec ID                                 : A_EAC3
    Duration                                 : 39 min 50 s
    Bit rate mode                            : Constant
    Bit rate                                 : 640 kb/s
    Channel(s)                               : 6 channels
    Channel layout                           : L R C LFE Ls Rs
    Sampling rate                            : 48.0 kHz
    Frame rate                               : 31.250 FPS (1536 SPF)
    Compression mode                         : Lossy
    Stream size                              : 182 MiB (14%)
    Title                                    : němčina
    Language                                 : German
    Service kind                             : Complete Main
    Default                                  : No
    Forced                                   : No

    Audio #3
    ID                                       : 4
    Format                                   : E-AC-3 JOC
    Format/Info                              : Enhanced AC-3 with Joint Object Coding
    Commercial name                          : Dolby Digital Plus with Dolby Atmos
    Codec ID                                 : A_EAC3
    Duration                                 : 39 min 50 s
    Bit rate mode                            : Constant
    Bit rate                                 : 768 kb/s
    Channel(s)                               : 6 channels
    Channel layout                           : L R C LFE Ls Rs
    Sampling rate                            : 48.0 kHz
    Frame rate                               : 31.250 FPS (1536 SPF)
    Compression mode                         : Lossy
    Stream size                              : 219 MiB (17%)
    Title                                    : angličtina [Originál]
    Language                                 : English
    Service kind                             : Complete Main
    Default                                  : No
    Forced                                   : No
    Complexity index                         : 16
    Number of dynamic objects                : 15
    Bed channel count                        : 1 channel
    Bed channel configuration                : LFE

    Audio #4
    ID                                       : 5
    Format                                   : E-AC-3
    Format/Info                              : Enhanced AC-3
    Commercial name                          : Dolby Digital Plus
    Codec ID                                 : A_EAC3
    Duration                                 : 39 min 50 s
    Bit rate mode                            : Constant
    Bit rate                                 : 640 kb/s
    Channel(s)                               : 6 channels
    Channel layout                           : L R C LFE Ls Rs
    Sampling rate                            : 48.0 kHz
    Frame rate                               : 31.250 FPS (1536 SPF)
    Compression mode                         : Lossy
    Stream size                              : 182 MiB (14%)
    Title                                    : maďarština
    Language                                 : Hungarian
    Service kind                             : Complete Main
    Default                                  : No
    Forced                                   : No

    Audio #5
    ID                                       : 6
    Format                                   : E-AC-3
    Format/Info                              : Enhanced AC-3
    Commercial name                          : Dolby Digital Plus
    Codec ID                                 : A_EAC3
    Duration                                 : 39 min 50 s
    Bit rate mode                            : Constant
    Bit rate                                 : 640 kb/s
    Channel(s)                               : 6 channels
    Channel layout                           : L R C LFE Ls Rs
    Sampling rate                            : 48.0 kHz
    Frame rate                               : 31.250 FPS (1536 SPF)
    Compression mode                         : Lossy
    Stream size                              : 182 MiB (14%)
    Title                                    : polština
    Language                                 : Polish
    Service kind                             : Complete Main
    Default                                  : No
    Forced                                   : No

    Text #1
    ID                                       : 7
    Format                                   : UTF-8
    Codec ID                                 : S_TEXT/UTF8
    Codec ID/Info                            : UTF-8 Plain Text
    Duration                                 : 38 min 31 s
    Bit rate                                 : 81 b/s
    Frame rate                               : 0.292 FPS
    Count of elements                        : 674
    Stream size                              : 23.1 KiB (0%)
    Title                                    : čeština
    Language                                 : Czech
    Default                                  : Yes
    Forced                                   : No

    Text #2
    ID                                       : 8
    Format                                   : UTF-8
    Codec ID                                 : S_TEXT/UTF8
    Codec ID/Info                            : UTF-8 Plain Text
    Duration                                 : 38 min 31 s
    Bit rate                                 : 4 b/s
    Frame rate                               : 0.021 FPS
    Count of elements                        : 49
    Stream size                              : 1.19 KiB (0%)
    Title                                    : Czech [ForcedNarrative]
    Language                                 : Czech
    Default                                  : No
    Forced                                   : No

    Text #3
    ID                                       : 9
    Format                                   : UTF-8
    Codec ID                                 : S_TEXT/UTF8
    Codec ID/Info                            : UTF-8 Plain Text
    Duration                                 : 38 min 29 s
    Bit rate                                 : 3 b/s
    Frame rate                               : 0.019 FPS
    Count of elements                        : 45
    Stream size                              : 904 Bytes (0%)
    Title                                    : German [ForcedNarrative]
    Language                                 : German
    Default                                  : No
    Forced                                   : No

    Text #4
    ID                                       : 10
    Format                                   : UTF-8
    Codec ID                                 : S_TEXT/UTF8
    Codec ID/Info                            : UTF-8 Plain Text
    Duration                                 : 38 min 29 s
    Bit rate                                 : 80 b/s
    Frame rate                               : 0.279 FPS
    Count of elements                        : 645
    Stream size                              : 22.6 KiB (0%)
    Title                                    : němčina
    Language                                 : German
    Default                                  : No
    Forced                                   : No

    Text #5
    ID                                       : 11
    Format                                   : UTF-8
    Codec ID                                 : S_TEXT/UTF8
    Codec ID/Info                            : UTF-8 Plain Text
    Duration                                 : 35 min 36 s
    Bit rate                                 : 22 b/s
    Frame rate                               : 0.082 FPS
    Count of elements                        : 175
    Stream size                              : 5.80 KiB (0%)
    Title                                    : English [ForcedNarrative]
    Language                                 : English
    Default                                  : No
    Forced                                   : No

    Text #6
    ID                                       : 12
    Format                                   : UTF-8
    Codec ID                                 : S_TEXT/UTF8
    Codec ID/Info                            : UTF-8 Plain Text
    Duration                                 : 37 min 59 s
    Bit rate                                 : 107 b/s
    Frame rate                               : 0.308 FPS
    Count of elements                        : 701
    Stream size                              : 29.8 KiB (0%)
    Title                                    : angličtina [CC]
    Language                                 : English
    Default                                  : No
    Forced                                   : No

    Text #7
    ID                                       : 13
    Format                                   : UTF-8
    Codec ID                                 : S_TEXT/UTF8
    Codec ID/Info                            : UTF-8 Plain Text
    Duration                                 : 38 min 31 s
    Bit rate                                 : 6 b/s
    Frame rate                               : 0.028 FPS
    Count of elements                        : 64
    Stream size                              : 1.83 KiB (0%)
    Title                                    : Hungarian [ForcedNarrative]
    Language                                 : Hungarian
    Default                                  : No
    Forced                                   : No

    Text #8
    ID                                       : 14
    Format                                   : UTF-8
    Codec ID                                 : S_TEXT/UTF8
    Codec ID/Info                            : UTF-8 Plain Text
    Duration                                 : 38 min 31 s
    Bit rate                                 : 83 b/s
    Frame rate                               : 0.286 FPS
    Count of elements                        : 662
    Stream size                              : 23.7 KiB (0%)
    Title                                    : maďarština
    Language                                 : Hungarian
    Default                                  : No
    Forced                                   : No

    Text #9
    ID                                       : 15
    Format                                   : UTF-8
    Codec ID                                 : S_TEXT/UTF8
    Codec ID/Info                            : UTF-8 Plain Text
    Duration                                 : 35 min 5 s
    Bit rate                                 : 2 b/s
    Frame rate                               : 0.011 FPS
    Count of elements                        : 24
    Stream size                              : 613 Bytes (0%)
    Title                                    : Polish [ForcedNarrative]
    Language                                 : Polish
    Default                                  : No
    Forced                                   : No

    Text #10
    ID                                       : 16
    Format                                   : UTF-8
    Codec ID                                 : S_TEXT/UTF8
    Codec ID/Info                            : UTF-8 Plain Text
    Duration                                 : 38 min 29 s
    Bit rate                                 : 72 b/s
    Frame rate                               : 0.294 FPS
    Count of elements                        : 678
    Stream size                              : 20.3 KiB (0%)
    Title                                    : polština
    Language                                 : Polish
    Default                                  : No
    Forced                                   : No

    Text #11
    ID                                       : 17
    Format                                   : UTF-8
    Codec ID                                 : S_TEXT/UTF8
    Codec ID/Info                            : UTF-8 Plain Text
    Duration                                 : 38 min 31 s
    Bit rate                                 : 13 b/s
    Frame rate                               : 0.034 FPS
    Count of elements                        : 79
    Stream size                              : 3.90 KiB (0%)
    Title                                    : Ukrainian [ForcedNarrative]
    Language                                 : Ukrainian
    Default                                  : No
    Forced                                   : No

    Text #12
    ID                                       : 18
    Format                                   : UTF-8
    Codec ID                                 : S_TEXT/UTF8
    Codec ID/Info                            : UTF-8 Plain Text
    Duration                                 : 38 min 31 s
    Bit rate                                 : 132 b/s
    Frame rate                               : 0.304 FPS
    Count of elements                        : 703
    Stream size                              : 37.4 KiB (0%)
    Title                                    : ukrajinština
    Language                                 : Ukrainian
    Default                                  : No
    Forced                                   : No









    diablo1975, MartinZetek, Japa104, pepa49, foxtools, Jablonka, myshos66, Projekt23, milanhugo, flying,

    + Pridaj vlastnu verziu tohto torrentu +


    Upozornenie:
    Ziadny zo zobrazených súborov sa nenachádza na tomto serveri. Server slúzi len k síreniu vlastnorucne vytvorených aplikácií, videí, hudby ai. Autori stránok nenesú ziadnu zodpovednost za zverejnené odkazy, komentáre a obsah súborov. Vsetky komentáre, odkazy, súbory ktoré by svojou povahou mohli byt v rozpore zo zákonmi sem vkladáte na vlastnú zodpovednost. Autori stránok si vyhradzujú právo cenzúry odkazov, komentárov príp. súborov, ktoré by svojou povahou mohli byt v rozpore zo zákonmi a dobrými mravmi. Dodrzujte pravidlá!


    No comments...


    Back

    Na serveru se nenalézají zádne soubory. Za odkazy jsou výhradně zodpovědní uzivatelé a návstěvníci tohoto trackeru. Administrátor není zodpovědný za pridaný obsah ani za skody zpusobené uzivateli. Nesmíte pouzívat tuto webovou stránku pro distribuovaní nebo download zádného materiálu pokud nemáte povolení od príslusného vlastníka práv. Uzivatelé jsou zodpovědní za dodrzování těchto pravidel a podmínek. Owner má právo kdykoliv změnit pravidla tohoto trackeru.

    [ Script trval: 0.031 sec. ] - [ GZIP: enabled ]
    Je zhruba 19:50
    sql

    TOPlist