Tvoj účet nieje VIP.
Preto sú tvoje funkcie a možnosti značne obmedzené.
Pre aktiváciu VIP klikni sem.

G.I.JOE Collection (2009-2013)(eng,cze,svk) 1080p = CSFD 61% | SkTorrent.eu

Cz-SkTorrent open Tracker, na volné zdielanie súborov. Pridajte sa k nasej komunite a získajte pristup k tisícom torrentov.

  • vysoká rýchlost
  • úplne zdarma
  • prevazne Slovenska a Ceska scena
  • ste tu s nami uz 5 rokov - Dakujeme
  • Vitaj Guest (Login) Ako stahovat
    torrenty?
    Torrenty:
    v1 textová
    v2 obrázková
    v3 online filmy
    Ako sa stat
    Uploaderom
    Online
    Filmy
    Forum
    Pravidlá
    BitTorrent
    klient
    Meno: Heslo:
    Zaregistrovat
    Po zaregistrovaní mozte volne stahovat
    Zabudol som heslo

    Torrent's details
    G.I.JOE Collection (2009-2013)(eng,cze,svk) 1080p = CSFD 61% Názov:G.I.JOE Collection (2009-2013)(eng,cze,svk) 1080p = CSFD 61% Hodnocení:N/A Stiahnut
    Pozriet Online
    Kategória:HD Filmy Velikost:29.1 GB BitTorrent klient
    Pridaný: Súbory:
    Skontrolován:2020-10-15 Peerov:29 (Seed: 26, Leech: 3)
    Zaner:Akcni,Dobrodruzny,Sci-Fi,Thriller Uploader:Uvidis, az ked budes
    VIP
    Kúp nám Pivo 1,10€

    Kúp nám Pivo
    Podporte nas na Facebooku !
    Pridaj do zalozky
    Pridaj do zalozky




    https://www.csfd.cz/film/235763-g-i-joe/prehled/
    Akční / Dobrodružný / Sci-Fi / ThrillerUSA / Česko, 2009, 113 minRežie: Stephen SommersScénář: Stuart BeattieDavid ElliotPaul LovettKamera: Mitchell AmundsenHudba: Alan SilvestriHrají: Dennis QuaidChanning TatumMarlon WayansSienna MillerJoseph Gordon-LevittSaïd TaghmaouiChristopher EcclestonAdewale Akinnuoye-AgbajeRachel NicholsRay ParkKevin J. O'ConnorArnold VoslooByeong-heon LeeJonathan PryceGrégory FitoussiKarolína KurkováGerald OkamuraDavid MurrayJoe ChaconBrendan Fraser



    Elitní tým profesionálů G.I. Joe vybavený nejmodernější špionážní a vojenskou technikou neúnavně cestuje po celém světě. Bojuje proti zbrojařské firmě Destro a potírá vzrůstající vliv nebezpečné tajné organizace Kobra, která se snaží uvrhnout svět v chaos.
    I když námět tohoto výpravného akčního filmu čerpá z bytostně americké hry, čeští diváci se při jeho sledování budou cítit jako doma. Jedna z klíčových scén, opulentní automobilová honička, se totiž odehrává v kulisách pražského Starého města. Ostatně režisér Stephen Sommers (tvůrce prvních dvou dílů Mumie) jinak než velkoryse své filmy točit neumí... Za „světového policajta“ jsou sice považovány Spojené státy, ale ve skutečnosti je jím organizace zvaná G. I. Joe, která používá nejvyspělejší technologie a nejprověřenější lidi k tomu, aby bojovala se zlem po celém světě. V hledáčku jejího zájmu se momentálně nachází zbrojařská firma Destro, která to nepokrytě hraje na více stran, a hlavně záhadná organizace zvaná Kobra, jejíž aktivity kormidlují svět ke stále většímu chaosu. Situace je o to vážnější, že členové Kobry nejsou o nic hůř vybaveni než příslušníci G.I. Joe... Stejně jako u adaptace předchozí herní série společnosti Hasbro, akčních postaviček Transformers, spočívala největší výzva pro filmaře ve vybalancování příběhu, který by uspokojil jak fanoušky, kteří s těmito figurkami vyrostli, tak diváky, co je neznají. „Mohli jsme pouze okopírovat charaktery, které se postupně z akčních postaviček proměnily v hrdiny kreslených komiksů a animovaných seriálů, ale tím bychom ztratili právě ony ,nepoznamenané' diváky,“ říká režisér, který se odvážně rozhodl jít střední cestou na pomezí klasické komiksové adaptace a bondovsky laděného dobrodružství. Na rozdíl od jiných „hrdinských“ akčních filmů nestojí na straně dobra izolovaný jedinec ale skupinka rovnoprávných specialistů s různými schopnostmi a vzájemnými vazbami. Do jejich světa vstupujeme prostřednictvím Dukea (Channing Tatum), který je vůdčí osobou týmu, v němž se mimo jiné vyskytuje i krásná, nicméně citově nezralá špiónka, němý vyznavač asijských bojových umění nebo česká modelka Karolina Kurková v jedné z menších rolí. Kromě ní uvidíme ve filmu i Dennise QuaidaSiennu Millerovou nebo Christophera Ecclestona.


    Format : Matroska
    Format version : Version 2
    File size : 14.1 GiB
    Duration : 1h 57mn
    Overall bit rate : 17.1 Mbps
    Movie name : G.I. Joe: The Rise Of Cobra (2009)
    Encoded date : UTC 2020-10-07 19:38:03
    Writing application : mkvmerge v4.4.0 ('Die Wiederkehr') built on Oct 31 2010 21:52:48
    Writing library : libebml v1.0.0 + libmatroska v1.0.0

    Video
    ID : 1
    Format : AVC
    Format/Info : Advanced Video Codec
    Format profile : High@L4.1
    Format settings, CABAC : Yes
    Format settings, ReFrames : 5 frames
    Muxing mode : Header stripping
    Codec ID : V_MPEG4/ISO/AVC
    Duration : 1h 57mn
    Bit rate : 16.0 Mbps
    Width : 1 920 pixels
    Height : 800 pixels
    Display aspect ratio : 2.40:1
    Frame rate mode : Constant
    Frame rate : 23.976 fps
    Color space : YUV
    Chroma subsampling : 4:2:0
    Bit depth : 8 bits
    Scan type : Progressive
    Bits/(Pixel*Frame) : 0.434
    Stream size : 12.9 GiB (92%)
    Title : G.I.Joe.The.Rise.Of.Cobra.2009
    Writing library : x264 core 68 r1184M 88b35c2
    Encoding settings : cabac=1 / ref=5 / deblock=1:-3:-3 / analyse=0x3:0x113 / me=umh / subme=9 / psy_rd=1.0:0.0 / mixed_ref=1 / me_range=32 / chroma_me=1 / trellis=2 / 8x8dct=1 / cqm=0 / deadzone=21,11 / chroma_qp_offset=-4 / threads=6 / nr=0 / decimate=1 / mbaff=0 / bframes=8 / b_pyramid=1 / b_adapt=2 / b_bias=0 / direct=1 / wpredb=1 / keyint=250 / keyint_min=25 / scenecut=40 / rc=2pass / bitrate=16000 / ratetol=1.0 / qcomp=0.60 / qpmin=10 / qpmax=51 / qpstep=4 / cplxblur=20.0 / qblur=0.5 / vbv_maxrate=50000 / vbv_bufsize=50000 / ip_ratio=1.40 / pb_ratio=1.30 / aq=1:1.00
    Language : English
    Default : Yes
    Forced : No

    Audio #1
    ID : 2
    Format : AC-3
    Format/Info : Audio Coding 3
    Mode extension : CM (complete main)
    Format settings, Endianness : Big
    Muxing mode : Header stripping
    Codec ID : A_AC3
    Duration : 1h 57mn
    Bit rate mode : Constant
    Bit rate : 448 Kbps
    Channel(s) : 6 channels
    Channel positions : Front: L C R, Side: L R, LFE
    Sampling rate : 48.0 KHz
    Bit depth : 16 bits
    Compression mode : Lossy
    Stream size : 378 MiB (3%)
    Title : cze
    Language : Czech
    Default : Yes
    Forced : No

    Audio #2
    ID : 3
    Format : AC-3
    Format/Info : Audio Coding 3
    Mode extension : CM (complete main)
    Format settings, Endianness : Big
    Muxing mode : Header stripping
    Codec ID : A_AC3
    Duration : 1h 57mn
    Bit rate mode : Constant
    Bit rate : 448 Kbps
    Channel(s) : 6 channels
    Channel positions : Front: L C R, Side: L R, LFE
    Sampling rate : 48.0 KHz
    Bit depth : 16 bits
    Compression mode : Lossy
    Stream size : 378 MiB (3%)
    Title : eng
    Language : English
    Default : No
    Forced : No

    Audio #3
    ID : 6
    Format : AC-3
    Format/Info : Audio Coding 3
    Mode extension : CM (complete main)
    Format settings, Endianness : Big
    Muxing mode : Header stripping
    Codec ID : A_AC3
    Duration : 1h 57mn
    Bit rate mode : Constant
    Bit rate : 192 Kbps
    Channel(s) : 2 channels
    Channel positions : Front: L R
    Sampling rate : 48.0 KHz
    Bit depth : 16 bits
    Compression mode : Lossy
    Stream size : 162 MiB (1%)
    Language : Slovak
    Default : No
    Forced : No

    Text #1
    ID : 4
    Format : UTF-8
    Codec ID : S_TEXT/UTF8
    Codec ID/Info : UTF-8 Plain Text
    Title : cze
    Language : Czech
    Default : No
    Forced : No

    Text #2
    ID : 5
    Format : UTF-8
    Codec ID : S_TEXT/UTF8
    Codec ID/Info : UTF-8 Plain Text
    Title : English
    Language : English
    Default : No
    Forced : No



    [list]
  •  G.I. Joe: Retaliation
  •  G.I. Joe 2 (pracovní název)
  • (další názvy)
    [/list]
    Akční / Dobrodružný / Sci-Fi / ThrillerUSA, 2013, 110 min (Director's cut: 123 min)Režie: Jon M. ChuScénář: Rhett ReesePaul WernickKamera: Stephen F. WindonHudba: Henry JackmanHrají: Dwayne JohnsonJonathan PryceByeong-heon LeeElodie YungRay StevensonD.J. CotronaAdrianne PalickiChanning Tatum(Bruce Willis - )Ray ParkRZAArnold VoslooJoseph MazzelloJoe ChrestWalton GogginsPhil AustinJames RawlingsBrittney AlgerPhilippe RadeletDustan CostineHan SotoMatt GeraldLuke Bracey

    Modrá planeta se ocitla na pokraji zkázy vinou intrik mocné organizace Cobra, která má s G. I. Joe nevyřízené účty. Jak moc leží jejím vůdcům v žaludku, se ukáže ve chvíli, kdy rafinovanou lstí ovládnou Bílý dům a z Oválné pracovny označí příslušníky této jednotky za vlastizrádce a zahájí jejich řízenou likvidaci. Pár přeživších může jen nečinně přihlížet tomu, jak si vůdci Cobry s prstem na jaderném tlačítku podmaňují celý svět. Ve chvíli, kdy zoufalství vrcholí, zrodí se plán s krycím označením „Druhá americká revoluce“. Jeho klíčovou součástí je angažování Josepha Coltona ((Bruce Willis - )), vůbec prvního velitele G. I. Joe, který už pár podobných krizí zažil. Je otázkou, zda budou zkušenosti muže, který už byl na odpočinku, stačit k tomu, aby se rovnováha sil natrvalo vychýlila ve prospěch G. I. Joe.                                                                                                                                                                                                                                                                                                                                                              Format : Matroska
    Format version : Version 2
    File size : 15.0 GiB
    Duration : 1h 50mn
    Overall bit rate : 19.5 Mbps
    Encoded date : UTC 2015-12-07 19:07:32
    Writing application : mkvmerge v4.4.0 ('Die Wiederkehr') built on Oct 31 2010 21:52:48
    Writing library : libebml v1.0.0 + libmatroska v1.0.0

    Video
    ID : 1
    Format : AVC
    Format/Info : Advanced Video Codec
    Format profile : High@L4.1
    Format settings, CABAC : Yes
    Format settings, ReFrames : 5 frames
    Muxing mode : Header stripping
    Codec ID : V_MPEG4/ISO/AVC
    Duration : 1h 50mn
    Bit rate : 17.5 Mbps
    Width : 1 920 pixels
    Height : 800 pixels
    Display aspect ratio : 2.40:1
    Frame rate mode : Constant
    Frame rate : 23.976 fps
    Color space : YUV
    Chroma subsampling : 4:2:0
    Bit depth : 8 bits
    Scan type : Progressive
    Bits/(Pixel*Frame) : 0.474
    Stream size : 13.5 GiB (89%)
    Writing library : x264 core 132 r2323+704+51 d571b1c tMod [8-bit@4:2:0 X86_64]
    Encoding settings : cabac=1 / ref=5 / deblock=1:-3:-3 / analyse=0x3:0x113 / me=umh / subme=11 / psy=1 / fade_compensate=0.00 / psy_rd=1.02:0.00 / mixed_ref=1 / me_range=32 / chroma_me=1 / trellis=2 / 8x8dct=1 / cqm=0 / deadzone=21,11 / fast_pskip=0 / chroma_qp_offset=-2 / threads=36 / lookahead_threads=6 / sliced_threads=0 / nr=0 / decimate=0 / interlaced=0 / bluray_compat=0 / constrained_intra=0 / fgo=0 / bframes=8 / b_pyramid=2 / b_adapt=2 / b_bias=0 / direct=3 / weightb=1 / open_gop=0 / weightp=2 / keyint=240 / keyint_min=24 / scenecut=40 / intra_refresh=0 / rc_lookahead=240 / rc=crf / mbtree=1 / crf=18.3000 / qcomp=0.70 / qpmin=0 / qpmax=69 / qpstep=4 / ip_ratio=1.20 / aq=4:0.80 / aq-sensitivity=10.00 / aq-factor=1.00:1.00:1.00 / aq2=0 / aq3=0
    Language : English
    Default : No
    Forced : No

    Audio #1
    ID : 2
    Format : AC-3
    Format/Info : Audio Coding 3
    Mode extension : CM (complete main)
    Format settings, Endianness : Big
    Muxing mode : Header stripping
    Codec ID : A_AC3
    Duration : 1h 50mn
    Bit rate mode : Constant
    Bit rate : 640 Kbps
    Channel(s) : 6 channels
    Channel positions : Front: L C R, Side: L R, LFE
    Sampling rate : 48.0 KHz
    Bit depth : 16 bits
    Compression mode : Lossy
    Stream size : 505 MiB (3%)
    Language : Czech
    Default : Yes
    Forced : No

    Audio #2
    ID : 3
    Format : AC-3
    Format/Info : Audio Coding 3
    Mode extension : CM (complete main)
    Format settings, Endianness : Big
    Muxing mode : Header stripping
    Codec ID : A_AC3
    Duration : 1h 50mn
    Bit rate mode : Constant
    Bit rate : 640 Kbps
    Channel(s) : 6 channels
    Channel positions : Front: L C R, Side: L R, LFE
    Sampling rate : 48.0 KHz
    Bit depth : 16 bits
    Compression mode : Lossy
    Stream size : 505 MiB (3%)
    Language : English
    Default : No
    Forced : No

    Audio #3
    ID : 5
    Format : AC-3
    Format/Info : Audio Coding 3
    Mode extension : CM (complete main)
    Format settings, Endianness : Big
    Muxing mode : Header stripping
    Codec ID : A_AC3
    Duration : 1h 50mn
    Bit rate mode : Constant
    Bit rate : 384 Kbps
    Channel(s) : 2 channels
    Channel positions : Front: L R
    Sampling rate : 48.0 KHz
    Bit depth : 16 bits
    Compression mode : Lossy
    Stream size : 303 MiB (2%)
    Language : Slovak
    Default : No
    Forced : No

    Text #1
    ID : 4
    Format : PGS
    Muxing mode : zlib
    Codec ID : S_HDMV/PGS
    Codec ID/Info : The same subtitle format used on BDs/HD-DVDs
    Language : Slovak
    Default : No
    Forced : No

    Text #2
    ID : 6
    Format : UTF-8
    Codec ID : S_TEXT/UTF8
    Codec ID/Info : UTF-8 Plain Text
    Language : Slovak
    Default : Yes
    Forced : No
         








    orlov,

    + Pridaj vlastnu verziu tohto torrentu +


  • Upozornenie:
    Ziadny zo zobrazených súborov sa nenachádza na tomto serveri. Server slúzi len k síreniu vlastnorucne vytvorených aplikácií, videí, hudby ai. Autori stránok nenesú ziadnu zodpovednost za zverejnené odkazy, komentáre a obsah súborov. Vsetky komentáre, odkazy, súbory ktoré by svojou povahou mohli byt v rozpore zo zákonmi sem vkladáte na vlastnú zodpovednost. Autori stránok si vyhradzujú právo cenzúry odkazov, komentárov príp. súborov, ktoré by svojou povahou mohli byt v rozpore zo zákonmi a dobrými mravmi. Dodrzujte pravidlá!


    No comments...


    Back

    Na serveru se nenalézají zádne soubory. Za odkazy jsou výhradně zodpovědní uzivatelé a návstěvníci tohoto trackeru. Administrátor není zodpovědný za pridaný obsah ani za skody zpusobené uzivateli. Rozsirovat stránku nebo její obsah bez souhlasu ownera je zakázano. Nesmíte pouzívat tuto webovou stránku pro distribuovaní nebo download zádného materiálu pokud nemáte povolení od príslusného vlastníka práv. Uzivatelé jsou zodpovědní za dodrzování těchto pravidel a podmínek. Owner má právo kdykoliv změnit pravidla tohoto trackeru.

    [ Script trval: 0.639 sec. ] - [ GZIP: enabled ]
    BtiTracker (1.4.8) by Btiteam
    Je zhruba 23:17

    TOPlist