Tvoj účet nieje VIP.
Preto sú tvoje funkcie a možnosti značne obmedzené.
Pre aktiváciu VIP klikni sem.

Gappa / Daikjódžu Gappa (1967)(CZ)[1080p] = CSFD 58% | SkTorrent.eu

Cz-SkTorrent open Tracker, na volné zdieľanie súborov. Pridajte sa k našej komunite a získajte prístup k tisícom torrentov.

  • vysoká rýchlosť
  • úplne zdarma
  • prevažne Slovenská a Česká scéna
  • ste tu s nami už 10 rokov - Ďakujeme
  • Vitaj Guest (Login) Ako stahovat
    torrenty?
    Torrenty:
    v1 textová
    v2 obrázková
    Ako sa stat
    Uploaderom
    Online
    Filmy
    Forum
    Pravidlá
    SkTSocial
    BitTorrent
    klient
    Meno: Heslo:
    Zaregistrovat
    Po zaregistrovaní mozte volne stahovat
    Zabudol som heslo

    Gappa / Daikjódžu Gappa (1967)(CZ)[1080p] = CSFD 58% Názov:Gappa / Daikjódžu Gappa (1967)(CZ)[1080p] = CSFD 58% Hodnocení:N/A Stiahnut
    Pozriet Online
    Kategória:Filmy CZ/SK dabing - Velikost:6.0 GB BitTorrent klient
    Pridaný: Súbory:
    Skontrolován:2023-01-24 Peerov:48 (Seed: 39, Leech: 9)
    Zaner:Horor,Sci-Fi Uploader:Uvidis, az ked budes
    VIP
    Kúp nám Pivo 1,10€

    Kúp nám Pivo

    Pridaj do zalozky
    Pridaj do zalozky






    Další film na přání.




    Gappa - Daikjódžu Gappa (CZ)

    Horor / Sci-Fi
    Japonsko / USA, 1967







    Expedice zjistí na jednom z pacifických ostrovů, že zde domorodci vyznávají podivné božstvo. Po nějaké době objeví v jedné z jeskyní vejce a mládě ještěra.
    To odvezou s sebou do Japonska. Když rodiče odhalí, že jejich mládě zmizelo, vydají se po stopách expedice. Při svém postupu demolují průmyslovou krajinu.
    Zbraně jsou proti nim neúčinné. Až na periferii Tokia jim lidé mládě vrátí a nestvůry odletí zpět na svůj ostrov.
















    General
    Unique ID                   : 188885406319833714777176778142543442804 (0x8E1A0189CCCF93B6641FB3E0281EF374)
    Complete name               : E:\Gappa.mkv
    Format                      : Matroska
    Format version              : Version 4
    File size                   : 6.03 GiB
    Duration                    : 1 h 23 min
    Overall bit rate            : 10.3 Mb/s
    Encoded date                : UTC 2023-01-23 22:46:39
    Writing application         : mkvmerge v73.0.0 ('25 or 6 to 4') 64-bit
    Writing library             : libebml v1.4.4 + libmatroska v1.7.1

    Video
    ID                          : 1
    Format                      : AVC
    Format/Info                 : Advanced Video Codec
    Format profile              : High@L4
    Format settings             : CABAC / 4 Ref Frames
    Format settings, CABAC      : Yes
    Format settings, Reference  : 4 frames
    Codec ID                    : V_MPEG4/ISO/AVC
    Duration                    : 1 h 23 min
    Bit rate                    : 10 000 kb/s
    Width                       : 1 920 pixels
    Height                      : 1 080 pixels
    Display aspect ratio        : 16:9
    Frame rate mode             : Constant
    Frame rate                  : 30.000 FPS
    Color space                 : YUV
    Chroma subsampling          : 4:2:0
    Bit depth                   : 8 bits
    Scan type                   : Progressive
    Bits/(Pixel*Frame)          : 0.161
    Stream size                 : 5.86 GiB (97%)
    Writing library             : x264 core 148
    Default                     : Yes
    Forced                      : No

    Audio
    ID                          : 2
    Format                      : AAC LC
    Format/Info                 : Advanced Audio Codec Low Complexity
    Codec ID                    : A_AAC-2
    Duration                    : 1 h 23 min
    Bit rate                    : 288 kb/s
    Channel(s)                  : 2 channels
    Channel layout              : L R
    Sampling rate               : 48.0 kHz
    Frame rate                  : 46.875 FPS (1024 SPF)
    Compression mode            : Lossy
    Stream size                 : 169 MiB (3%)
    Default                     : Yes
    Forced                      : No















    martinzich, archibald33, MiBstarsk, HECHO, Castor2, mimu, ivankob, ivankob, teapel, romgan, hrdYna, kahorr8, Carter83, Jirkasamotar, Doudy61, Myšuna, matopd, mirounek, kyzivat, PETRRE, pepovnblbovn, haseki,

    + Pridaj vlastnu verziu tohto torrentu +


    Upozornenie:
    Ziadny zo zobrazených súborov sa nenachádza na tomto serveri. Server slúzi len k síreniu vlastnorucne vytvorených aplikácií, videí, hudby ai. Autori stránok nenesú ziadnu zodpovednost za zverejnené odkazy, komentáre a obsah súborov. Vsetky komentáre, odkazy, súbory ktoré by svojou povahou mohli byt v rozpore zo zákonmi sem vkladáte na vlastnú zodpovednost. Autori stránok si vyhradzujú právo cenzúry odkazov, komentárov príp. súborov, ktoré by svojou povahou mohli byt v rozpore zo zákonmi a dobrými mravmi. Dodrzujte pravidlá!





    0
    pavlik1987
    Ratio 3.57

    Member+

    30/01/2023 16.07.34
    super , tieto starsie vzdy vedia potesit , co sa tyka aj Godzila atd od japoncov .... keby ze mas toho len potesis, hororik neaky tiez ...

    0
    kyzivat
    Ratio 2938.01

    VIP

    28/01/2023 15.07.13
    Taky prosím Nad ostrovy nevyjde slunce


    --------------
    >> 28/01/2023 15.56.39
    UPLOADER: Ano mám, ale pouze s titulky. CZ dabing nikdy nevyšel.

    0
    MirdaMirdovic999
    Ratio 2.02

    Member+

    24/01/2023 19.40.26
    Dííííky, nostalgie...................

    0
    hrdYna
    Ratio 1.31

    Member+

    24/01/2023 16.23.24



    --------------
    >> 24/01/2023 17.05.03
    kahorr8: :thumbsupěkuji. Prosba budou další. Dotaz- nemáš náhodou NAD OSTROVY NEVYJDE
                                                              SLUNCE .    

    0
    romgan
    Ratio 2.25

    Member+

    24/01/2023 12.23.08
    Pecka videl som to asi v 1980 mal som 12 rokov. Potom ešte : X príšera z vesmíru a Gamera kontra Gaos. Na tú dobu pecka, teraz len spomienka .

    1
    Castor2
    Ratio 4.07

    Member+

    24/01/2023 06.40.58
    Tisíceré díky. Film mého dětství.

    1
    archibald33
    Ratio 1.95

    Member+

    24/01/2023 01.09.20
    Děkuji moc


    Back

    Na serveru se nenalézají zádne soubory. Za odkazy jsou výhradně zodpovědní uzivatelé a návstěvníci tohoto trackeru. Administrátor není zodpovědný za pridaný obsah ani za skody zpusobené uzivateli. Nesmíte pouzívat tuto webovou stránku pro distribuovaní nebo download zádného materiálu pokud nemáte povolení od príslusného vlastníka práv. Uzivatelé jsou zodpovědní za dodrzování těchto pravidel a podmínek. Owner má právo kdykoliv změnit pravidla tohoto trackeru.

    [ Script trval: 0.084 sec. ] - [ GZIP: enabled ]
    Je zhruba 11:56
    memcache

    TOPlist