Tvoj účet nieje VIP.
Preto sú tvoje funkcie a možnosti značne obmedzené.
Pre aktiváciu VIP klikni sem.

Garrow's law Complete 3 Seasons (with Eng subs) | SkTorrent.eu

Cz-SkTorrent open Tracker, na volné zdielanie súborov. Pridajte sa k nasej komunite a získajte pristup k tisícom torrentov.

  • vysoká rýchlost
  • úplne zdarma
  • prevazne Slovenska a Ceska scena
  • ste tu s nami uz 5 rokov - Dakujeme
  • Vitaj Guest (Login) Ako stahovat
    torrenty?
    Torrenty:
    v1 textová
    v2 obrázková
    v3 online filmy
    Ako sa stat
    Uploaderom
    Online
    Filmy
    Forum
    Pravidlá
    BitTorrent
    klient
    pruzinky
    Meno: Heslo:
    Zaregistrovat
    Po zaregistrovaní mozte volne stahovat
    Zabudol som heslo

    Torrent's details
    Garrow's law Complete 3 Seasons (with Eng subs) Názov:Garrow's law Complete 3 Seasons (with Eng subs) Hodnocení:N/A Stiahnut
    Pozriet Online
    Kategória:Seriál Velikost:6.3 GB BitTorrent klient
    Pridaný: Súbory:
    Skontrolován:2019-02-21 Peerov:1 (Seed: 1, Leech: 0)
    Zaner:Drama,Zivotopisny Uploader:Uvidis, az ked budes
    VIP
    Kúp nám Pivo 1,10€

    Kúp nám Pivo
    Podporte nas na Facebooku !
    Pridaj do zalozky
    Pridaj do zalozky






    Garrowův zákon (TV seriál)

    Garrow's Law Complete 3 Seasons with Eng subs

    Drama

    Velká Británie, 2009, 12x60 min

    Režie: Peter Lydon, Bryn Higgins

    Anglicky s anglickymi titulky


    https://www.csfd.cz/film/271651-garrowuv-zakon/prehled/


         Format : AVI
         Format/Info : Audio Video Interleave
         File size : 466 MiB
         Duration : 59 min 17 s
         Overall bit rate mode : Variable
         Overall bit rate : 1 099 kb/s
         Writing application : VirtualDubMod 1.5.10.2 (build 2540/release)
         Writing library : VirtualDubMod build 2540/release
      Video #0
         ID : 0
         Format : MPEG-4 Visual
         Format profile : Advanced Simple@L5
         Format settings : BVOP1
         Format settings, BVOP : 1
         Format settings, QPel : No
         Format settings, GMC : No warppoints
         Format settings, Matrix : Default (H.263)
         Muxing mode : Packed bitstream
         Codec ID : XVID
         Codec ID/Hint : XviD
         Duration : 59 min 17 s
         Bit rate : 962 kb/s
         Width : 608 pixels
         Height : 336 pixels
         Display aspect ratio : 16:9
         Frame rate : 25.000 FPS
         Color space : YUV
         Chroma subsampling : 4:2:0
         Bit depth : 8 bits
         Scan type : Progressive
         Compression mode : Lossy
         Bits/(Pixel*Frame) : 0.188
         Stream size : 408 MiB (88%)
         Writing library : XviD 1.2.1 (UTC 2008-12-04)
      Audio #1
         ID : 1
         Format : MPEG Audio
         Format version : Version 1
         Format profile : Layer 3
         Format settings : Dual mono
         Codec ID : 55
         Codec ID/Hint : MP3
         Duration : 59 min 17 s
         Bit rate mode : Variable
         Bit rate : 128 kb/s
         Channel(s) : 2 channels
         Sampling rate : 48.0 kHz
         Frame rate : 41.667 FPS (1152 SPF)
         Compression mode : Lossy
         Stream size : 52.3 MiB (11%)
         Alignment : Aligned on interleaves
         Interleave, duration : 24  ms (0.60 video frame)
         Interleave, preload duration : 532  ms
         Writing library : LAME3.97
         Encoding settings : -m d -V 4 -q 3 -lowpass 17 --abr 128







    + Pridaj vlastnu verziu tohto torrentu +


    Upozornenie:
    Ziadny zo zobrazených súborov sa nenachádza na tomto serveri. Server slúzi len k síreniu vlastnorucne vytvorených aplikácií, videí, hudby ai. Autori stránok nenesú ziadnu zodpovednost za zverejnené odkazy, komentáre a obsah súborov. Vsetky komentáre, odkazy, súbory ktoré by svojou povahou mohli byt v rozpore zo zákonmi sem vkladáte na vlastnú zodpovednost. Autori stránok si vyhradzujú právo cenzúry odkazov, komentárov príp. súborov, ktoré by svojou povahou mohli byt v rozpore zo zákonmi a dobrými mravmi. Dodrzujte pravidlá!


    No comments...


    Back

    Na serveru se nenalézají zádne soubory. Za odkazy jsou výhradně zodpovědní uzivatelé a návstěvníci tohoto trackeru. Administrátor není zodpovědný za pridaný obsah ani za skody zpusobené uzivateli. Rozsirovat stránku nebo její obsah bez souhlasu ownera je zakázano. Nesmíte pouzívat tuto webovou stránku pro distribuovaní nebo download zádného materiálu pokud nemáte povolení od príslusného vlastníka práv. Uzivatelé jsou zodpovědní za dodrzování těchto pravidel a podmínek. Owner má právo kdykoliv změnit pravidla tohoto trackeru.

    [ Script trval: 0.023 sec. ] - [ GZIP: enabled ]
    BtiTracker (1.4.8) by Btiteam
    Je zhruba 15:54

    TOPlist