Tvoj účet nieje VIP.
Preto sú tvoje funkcie a možnosti značne obmedzené.
Pre aktiváciu VIP klikni sem.

Godzilla vs. Kong (2021)(CZ/EN)(2160p 4K HDR10 WebRip) = CSFD 56% | SkTorrent.eu

Cz-SkTorrent open Tracker, na volné zdielanie súborov. Pridajte sa k nasej komunite a získajte pristup k tisícom torrentov.

  • vysoká rýchlost
  • úplne zdarma
  • prevazne Slovenska a Ceska scena
  • ste tu s nami uz 5 rokov - Dakujeme
  • Vitaj Guest (Login) Ako stahovat
    torrenty?
    Torrenty:
    v1 textová
    v2 obrázková
    v3 online filmy
    Ako sa stat
    Uploaderom
    Online
    Filmy
    Forum
    Pravidlá
    BitTorrent
    klient
    Meno: Heslo:
    Zaregistrovat
    Po zaregistrovaní mozte volne stahovat
    Zabudol som heslo

    Torrent's details
    Godzilla vs. Kong (2021)(CZ/EN)(2160p 4K HDR10 WebRip) = CSFD 56% Názov:Godzilla vs. Kong (2021)(CZ/EN)(2160p 4K HDR10 WebRip) = CSFD 56% Hodnocení: Stiahnut
    Pozriet Online
    Kategória:UHD Filmy Velikost:15.8 GB BitTorrent klient
    Pridaný: Súbory:
    Skontrolován:2021-06-12 Peerov:36 (Seed: 35, Leech: 1)
    Zaner:Akcni,Drama,Sci-Fi,Thriller Uploader:Uvidis, az ked budes
    VIP
    Kúp nám Pivo 1,10€

    Kúp nám Pivo
    Podporte nas na Facebooku !
    Pridaj do zalozky
    Pridaj do zalozky






    Godzilla vs. Kong
    (2021)(CZ/EN) = CSFD 56%

    2160p 4K HDR10 - HEVC – 20.0 Mb/s Bitrate verzia


    ... Verzia pre UHD nedockavcov : ) ...






    Video: 2160p 4K HDR10 - HEVC
    Jazyk: CZ 5.1 DD / EN 5.1 DD with Atmos / EN 5.1 DD
    Titulky: CZ Forced / EN
    Akcni / Drama / Sci-Fi / Thriller
    USA 2021
    113 min

    Režie: Adam Wingard
    Scénář: Terry Rossio, Eric Pearson, Max Borenstein
    Kamera: Ben Seresin
    Hudba: Junkie XL
    Hrají: Alexander Skarsgård, Millie Bobby Brown, Rebecca Hall, Brian Tyree Henry, Šun Oguri, Eiza González, Jessica Henwick, Julian Dennison, Kyle Chandler, Demián Bichir, Kaylee Hottle, Lance Reddick, Danai Gurira, Daniel Nelson, Benjamin Rigby, Conlan Casal, Brad McMurray, Ronny Chieng

    OBSAH

    Legendy se střetnou ve filmu Godzilla vs. Kong, kde se tito mýtičtí protivníci setkávají ve velkolepé bitvě věků a osud světa tak visí na vlásku. Kong a jeho ochránci podniknou nebezpečnou cestu, aby našli svůj skutečný domov, a spolu s nimi je Jia, mladá osiřelá dívka, s níž si Kong vytvořil jedinečné a silné pouto. Neočekávaně se ocitli na cestě rozzuřené Godzilly, která postupně ničí celou planetu. Epický střet mezi dvěma titány - vyvolaný neviditelnými silami - je pouze začátkem tajemství, které leží hluboko v jádru Země.

    SCREEN


    TRAILER






    Hlavní
    Formát : Matroska
    Format version : Version 4
    Velikost souboru : 15,8 GiB
    Duration : 1 h 53 min
    Celkový BitRate : 20,0 Mb/s
    Encoded date : UTC 2021-06-11 23:46:51
    Použitý software : mkvmerge v31.0.0 ('Dolores In A Shoestand') 64-bit
    Enkódoval : libebml v1.3.6 + libmatroska v1.4.9

    Video
    ID : 1
    Formát : HEVC
    Formát/Info : High Efficiency Video Coding
    Format profile : Main 10@L5@Main
    HDR format : SMPTE ST 2086, HDR10 compatible
    Codec ID : V_MPEGH/ISO/HEVC
    Duration : 1 h 53 min
    Bit rate : 17,9 Mb/s
    Šířka : 3 840pixely
    Výška : 2 160pixely
    Poměr stran : 16:9
    Frame rate mode : Constant
    Frame rate : 23,976 (24000/1001) FPS
    Color space : YUV
    Chroma subsampling : 4:2:0
    Bit depth : 10 bits
    Bits/(Pixel*Frame) : 0.090
    Stream size : 14,2 GiB (90%)
    Enkódoval : x265 3.4hy:[Linux][GCC 7.5.0][64 bit] 10bit
    Default : Ano
    Forced : Ne
    Color range : Limited
    Color primaries : BT.2020
    Transfer characteristics : PQ
    Matrix coefficients : BT.2020 non-constant
    Mastering display color primaries : Display P3
    Mastering display luminance : min: 0.0001 cd/m2, max: 1000 cd/m2
    Maximum Content Light Level : 598 cd/m2
    Maximum Frame-Average Light Level : 273 cd/m2

    Audio #1
    ID : 2
    Formát : E-AC-3 JOC
    Formát/Info : Enhanced AC-3 with Joint Object Coding
    Commercial name : Dolby Digital Plus with Dolby Atmos
    Codec ID : A_EAC3
    Duration : 1 h 53 min
    Bit rate mode : Constant
    Bit rate : 768 kb/s
    Kanál(y) : 6 kanály
    Channel layout : L R C LFE Ls Rs
    Sampling rate : 48,0 kHz
    Frame rate : 31,250 FPS (1536 SPF)
    Compression mode : Lossy
    Stream size : 622 MiB (4%)
    Jazyk : English
    Service kind : Complete Main
    Default : Ne
    Forced : Ne
    Complexity index : 16
    Number of dynamic objects : 15
    Bed channel count : 1 kanál
    Bed channel configuration : LFE

    Audio #2
    ID : 4
    Formát : AC-3
    Formát/Info : Audio Coding 3
    Commercial name : Dolby Digital
    Codec ID : A_AC3
    Duration : 1 h 53 min
    Bit rate mode : Constant
    Bit rate : 640 kb/s
    Kanál(y) : 6 kanály
    Channel layout : L R C LFE Ls Rs
    Sampling rate : 48,0 kHz
    Frame rate : 31,250 FPS (1536 SPF)
    Compression mode : Lossy
    Stream size : 518 MiB (3%)
    Jazyk : Czech
    Service kind : Complete Main
    Default : Ano
    Forced : Ano

    Audio #3
    ID : 5
    Formát : AC-3
    Formát/Info : Audio Coding 3
    Commercial name : Dolby Digital
    Codec ID : A_AC3
    Duration : 1 h 53 min
    Bit rate mode : Constant
    Bit rate : 640 kb/s
    Kanál(y) : 6 kanály
    Channel layout : L R C LFE Ls Rs
    Sampling rate : 48,0 kHz
    Frame rate : 31,250 FPS (1536 SPF)
    Compression mode : Lossy
    Stream size : 518 MiB (3%)
    Jazyk : English
    Service kind : Complete Main
    Default : Ne
    Forced : Ne

    Text #1
    ID : 3
    Formát : UTF-8
    Codec ID : S_TEXT/UTF8
    Codec ID/Info : UTF-8 Plain Text
    Duration : 1 h 45 min
    Bit rate : 51 b/s
    Count of elements : 1415
    Stream size : 40,2 KiB (0%)
    Jazyk : English
    Default : Ne
    Forced : Ne

    Text #2
    ID : 6
    Formát : UTF-8
    Codec ID : S_TEXT/UTF8
    Codec ID/Info : UTF-8 Plain Text
    Duration : 1 h 44 min
    Bit rate : 2 b/s
    Count of elements : 94
    Stream size : 1,78 KiB (0%)
    Jazyk : Czech
    Default : Ano
    Forced : Ano

    Text #3
    ID : 7
    Formát : UTF-8
    Codec ID : S_TEXT/UTF8
    Codec ID/Info : UTF-8 Plain Text
    Duration : 1 h 52 min
    Bit rate : 32 b/s
    Count of elements : 876
    Stream size : 26,8 KiB (0%)
    Jazyk : Czech
    Default : Ne
    Forced : Ne

    Menu
    00:00:00.000 : en:Chapter 01
    00:09:51.591 : en:Chapter 02
    00:20:07.498 : en:Chapter 03
    00:29:02.366 : en:Chapter 04
    00:38:39.734 : en:Chapter 05
    00:49:15.995 : en:Chapter 06
    00:57:17.017 : en:Chapter 07
    01:09:07.977 : en:Chapter 08
    01:18:33.876 : en:Chapter 09
    01:30:06.109 : en:Chapter 10
    01:41:58.946 : en:Chapter 11







    VDAKA ZA BODY a SEEDUJTE





    ONLINE

    CZ dabing






    CZ titulky









    pepa49, SkippysCz, Trismegistos, Ares82, Jooozef, Milan-404, jabcak9, Tomsam21, Marcel147, orlov, AbdulAlli, Steve_Rogers, Roman2196, ulia, lalik,

    + Pridaj vlastnu verziu tohto torrentu +


    Upozornenie:
    Ziadny zo zobrazených súborov sa nenachádza na tomto serveri. Server slúzi len k síreniu vlastnorucne vytvorených aplikácií, videí, hudby ai. Autori stránok nenesú ziadnu zodpovednost za zverejnené odkazy, komentáre a obsah súborov. Vsetky komentáre, odkazy, súbory ktoré by svojou povahou mohli byt v rozpore zo zákonmi sem vkladáte na vlastnú zodpovednost. Autori stránok si vyhradzujú právo cenzúry odkazov, komentárov príp. súborov, ktoré by svojou povahou mohli byt v rozpore zo zákonmi a dobrými mravmi. Dodrzujte pravidlá!


    No comments...


    Back

    Na serveru se nenalézají zádne soubory. Za odkazy jsou výhradně zodpovědní uzivatelé a návstěvníci tohoto trackeru. Administrátor není zodpovědný za pridaný obsah ani za skody zpusobené uzivateli. Rozsirovat stránku nebo její obsah bez souhlasu ownera je zakázano. Nesmíte pouzívat tuto webovou stránku pro distribuovaní nebo download zádného materiálu pokud nemáte povolení od príslusného vlastníka práv. Uzivatelé jsou zodpovědní za dodrzování těchto pravidel a podmínek. Owner má právo kdykoliv změnit pravidla tohoto trackeru.

    [ Script trval: 0.020 sec. ] - [ GZIP: enabled ]
    BtiTracker (1.4.8) by Btiteam
    Je zhruba 00:35

    TOPlist