Tvoj účet nieje VIP.
Preto sú tvoje funkcie a možnosti značne obmedzené.
Pre aktiváciu VIP klikni sem.

Golden Kamuy (JP/EN)(2024)(CZ-Sub)(1080p)(WEB-DL) = CSFD 50% | SkTorrent.eu

Cz-SkTorrent open Tracker, na volné zdieľanie súborov. Pridajte sa k našej komunite a získajte prístup k tisícom torrentov.

  • vysoká rýchlosť
  • úplne zdarma
  • prevažne Slovenská a Česká scéna
  • ste tu s nami už 10 rokov - Ďakujeme
  • Vitaj Guest (Login) Ako stahovat
    torrenty?
    Torrenty:
    v1 textová
    v2 obrázková
    Ako sa stat
    Uploaderom
    Online
    Filmy
    Forum
    Pravidlá
    SkTSocial
    BitTorrent
    klient
    Meno: Heslo:
    Zaregistrovat
    Po zaregistrovaní mozte volne stahovat
    Zabudol som heslo

    Golden Kamuy (JP/EN)(2024)(CZ-Sub)(1080p)(WEB-DL) = CSFD 50% Názov:Golden Kamuy (JP/EN)(2024)(CZ-Sub)(1080p)(WEB-DL) = CSFD 50% Hodnocení: Stiahnut
    Pozriet Online
    Kategória:Filmy s titulkama - Velikost:5.0 GB BitTorrent klient
    Pridaný: Súbory:
    Skontrolován:2024-05-19 Peerov:19 (Seed: 19, Leech: 0)
    Zaner:Akcni,Dobrodruzny,Historicky Uploader:Uvidis, az ked budes
    VIP
    Kúp nám Pivo 1,10€

    Kúp nám Pivo

    Pridaj do zalozky
    Pridaj do zalozky






    Akční / Dobrodružný / Historický
    Japonsko, 2024, 128 min



    Dabing: JP/EN

    Tiulky: CZ/EN/JP

    Režie: Šigeaki Kubo

    Předloha: Satoru Noda (komiks)

    Scénář: Cutomu Kuroiwa

    Kamera: Daisuke Sóma

    Hudba: Jutaka Jamada

    Hrají: Kento Jamazaki, Anna Jamada, Gordon Maeda, Asuka Kudó, Šuntaró Janagi, Hiroši Tamaki, Júki Izumisawa, Júma Jamoto, Rjóhei Ótani, Kacuja, Micuki Takahata

    Produkce: Minami Ičikawa

    Střih: Takeši Wada

    Scénografie: Tošihiro Isomi

    Kostýmy: Masae Mijamoto

    Obsah:

    Děj se odehrává na konci období Meidži na japonském ostrově Hokkaidó a Saiči Sugimoto (Kento Jamazaki) je válečný hrdina, který byl během rusko-japonské války známý jako Nesmrtelný Sugimoto. Nyní začíná nový život na Hokkaidó. Aby získal peníze na svůj plán, rýžuje na Hokkaidu zlato. Dozvídá se o existenci zlatých nugetů, které patřily původním obyvatelům Ainu, ale byly ukradeny mužem známým jako Noppera-bo. Těsně předtím, než byl chycen, Noppera-bo zlaté nugety údajně ukryl. Ve vězení Noppera-bo vytetoval tajné místo mezi těla 24 různých vězňů. Každý vězeň měl kousek, který měl společně odhalit polohu zlatých nugetů. Noppera-bo pak s těmito 24 vězni z vězení uprchl. Jednoho dne je Saichi Sugimoto napaden divokým medvědem. V té době ho zachrání ainská dívka Asirpa (Anna Yamada). Asirpin otec byl zabit mužem, který ukradl zlaté nugety, a ona se chce otcovu vrahovi pomstít. Saichi Sugimoto a Asirpa začnou z různých důvodů spolupracovat. Do honby za ukrytými zlatými nugety se zapojují další lidé.


    Format                      : Matroska
    Format version              : Version 4
    File size                   : 4.99 GiB
    Duration                    : 2 h 9 min
    Overall bit rate            : 5 532 kb/s
    Movie name                  : Golden Kamuy
    Description                 : Válečný veterán a holka z národa Ainu hledají na ostrově Hokkaidó poklad podle mapy vytetované na kůži zločinců. Stejný nápad ale má i parta outsiderů a bývalých vojáků.
    Encoded date                : UTC 2024-05-19 07:34:20
    Writing application         : mkvmerge v68.0.0 ('The Curtain') 64-bit
    Writing library             : libebml v1.4.2 + libmatroska v1.6.4
    Cover                       : Yes
    Attachments                 : cover.png

    Video
    ID                          : 1
    Format                      : AVC
    Format/Info                 : Advanced Video Codec
    Format profile              : High@L4
    Format settings             : CABAC / 3 Ref Frames
    Format settings, CABAC      : Yes
    Format settings, Reference  : 3 frames
    Codec ID                    : V_MPEG4/ISO/AVC
    Duration                    : 2 h 9 min
    Bit rate mode               : Constant
    Bit rate                    : 4 393 kb/s
    Width                       : 1 920 pixels
    Height                      : 1 080 pixels
    Display aspect ratio        : 16:9
    Frame rate mode             : Constant
    Frame rate                  : 23.976 (24000/1001) FPS
    Color space                 : YUV
    Chroma subsampling          : 4:2:0
    Bit depth                   : 8 bits
    Scan type                   : Progressive
    Bits/(Pixel*Frame)          : 0.088
    Stream size                 : 3.83 GiB (77%)
    Default                     : Yes
    Forced                      : No
    Color range                 : Limited
    Color primaries             : BT.709
    Transfer characteristics    : BT.709
    Matrix coefficients         : BT.709

    Audio #1
    ID                          : 2
    Format                      : E-AC-3
    Format/Info                 : Enhanced AC-3
    Commercial name             : Dolby Digital Plus
    Codec ID                    : A_EAC3
    Duration                    : 2 h 9 min
    Bit rate mode               : Constant
    Bit rate                    : 640 kb/s
    Channel(s)                  : 6 channels
    Channel layout              : L R C LFE Ls Rs
    Sampling rate               : 48.0 kHz
    Frame rate                  : 31.250 FPS (1536 SPF)
    Compression mode            : Lossy
    Stream size                 : 591 MiB (12%)
    Title                       : angličtina
    Language                    : English
    Service kind                : Complete Main
    Default                     : No
    Forced                      : No

    Audio #2
    ID                          : 3
    Format                      : E-AC-3
    Format/Info                 : Enhanced AC-3
    Commercial name             : Dolby Digital Plus
    Codec ID                    : A_EAC3
    Duration                    : 2 h 9 min
    Bit rate mode               : Constant
    Bit rate                    : 640 kb/s
    Channel(s)                  : 6 channels
    Channel layout              : L R C LFE Ls Rs
    Sampling rate               : 48.0 kHz
    Frame rate                  : 31.250 FPS (1536 SPF)
    Compression mode            : Lossy
    Stream size                 : 591 MiB (12%)
    Title                       : japonština [Originál]
    Language                    : Japanese
    Service kind                : Complete Main
    Default                     : Yes
    Forced                      : No

    Text #1
    ID                          : 4
    Format                      : UTF-8
    Codec ID                    : S_TEXT/UTF8
    Codec ID/Info               : UTF-8 Plain Text
    Duration                    : 2 h 7 min
    Bit rate                    : 35 b/s
    Frame rate                  : 0.147 FPS
    Count of elements           : 1123
    Stream size                 : 33.5 KiB (0%)
    Title                       : čeština
    Language                    : Czech
    Default                     : Yes
    Forced                      : No

    Text #2
    ID                          : 5
    Format                      : UTF-8
    Codec ID                    : S_TEXT/UTF8
    Codec ID/Info               : UTF-8 Plain Text
    Duration                    : 2 h 7 min
    Bit rate                    : 50 b/s
    Frame rate                  : 0.200 FPS
    Count of elements           : 1529
    Stream size                 : 47.1 KiB (0%)
    Title                       : angličtina [CC]
    Language                    : English
    Default                     : No
    Forced                      : No

    Text #3
    ID                          : 6
    Format                      : UTF-8
    Codec ID                    : S_TEXT/UTF8
    Codec ID/Info               : UTF-8 Plain Text
    Duration                    : 2 h 6 min
    Bit rate                    : 52 b/s
    Frame rate                  : 0.186 FPS
    Count of elements           : 1420
    Stream size                 : 48.6 KiB (0%)
    Title                       : japonština [CC]
    Language                    : Japanese
    Default                     : No
    Forced                      : No

    Text #4
    ID                          : 7
    Format                      : UTF-8
    Codec ID                    : S_TEXT/UTF8
    Codec ID/Info               : UTF-8 Plain Text
    Duration                    : 1 h 58 min
    Bit rate                    : 1 b/s
    Frame rate                  : 0.008 FPS
    Count of elements           : 60
    Stream size                 : 1.28 KiB (0%)
    Title                       : English [ForcedNarrative]
    Language                    : English
    Default                     : No
    Forced                      : Yes

    Text #5
    ID                          : 8
    Format                      : UTF-8
    Codec ID                    : S_TEXT/UTF8
    Codec ID/Info               : UTF-8 Plain Text
    Duration                    : 1 h 59 min
    Bit rate                    : 0 b/s
    Frame rate                  : 0.003 FPS
    Count of elements           : 25
    Stream size                 : 884 Bytes (0%)
    Title                       : Japanese [ForcedNarrative]
    Language                    : Japanese
    Default                     : No
    Forced                      : Yes













    joshi59, 1234DURKO, Machyc79, ZDEKRA57, 12685, luky76, CharlesPaul, Divoch1312, jofo68, VladimirMarciKuba, Boblig, roman-beran, Slooki, pocpoc, -BIGI-, rst_1234, Jablonka,

    + Pridaj vlastnu verziu tohto torrentu +


    Upozornenie:
    Ziadny zo zobrazených súborov sa nenachádza na tomto serveri. Server slúzi len k síreniu vlastnorucne vytvorených aplikácií, videí, hudby ai. Autori stránok nenesú ziadnu zodpovednost za zverejnené odkazy, komentáre a obsah súborov. Vsetky komentáre, odkazy, súbory ktoré by svojou povahou mohli byt v rozpore zo zákonmi sem vkladáte na vlastnú zodpovednost. Autori stránok si vyhradzujú právo cenzúry odkazov, komentárov príp. súborov, ktoré by svojou povahou mohli byt v rozpore zo zákonmi a dobrými mravmi. Dodrzujte pravidlá!





    0
    Anunnaki
    Ratio 0.61

    VIP

    19/05/2024 10.36.36
    Zajímavé, je to podle kresleného seriálu. Kresleny je rozhodně lepší shlédnout.


    Back

    Na serveru se nenalézají zádne soubory. Za odkazy jsou výhradně zodpovědní uzivatelé a návstěvníci tohoto trackeru. Administrátor není zodpovědný za pridaný obsah ani za skody zpusobené uzivateli. Nesmíte pouzívat tuto webovou stránku pro distribuovaní nebo download zádného materiálu pokud nemáte povolení od príslusného vlastníka práv. Uzivatelé jsou zodpovědní za dodrzování těchto pravidel a podmínek. Owner má právo kdykoliv změnit pravidla tohoto trackeru.

    [ Script trval: 0.024 sec. ] - [ GZIP: enabled ]
    Je zhruba 22:19
    sql

    TOPlist