Tvoj účet nieje VIP.
Preto sú tvoje funkcie a možnosti značne obmedzené.
Pre aktiváciu VIP klikni sem.

Hancock (CZ)(2008) = CSFD 66% | SkTorrent.eu

Cz-SkTorrent open Tracker, na volné zdielanie súborov. Pridajte sa k nasej komunite a získajte pristup k tisícom torrentov.

  • vysoká rýchlost
  • úplne zdarma
  • prevazne Slovenska a Ceska scena
  • ste tu s nami uz 5 rokov - Dakujeme
  • Vitaj Guest (Login) Ako stahovat
    torrenty?
    Torrenty:
    v1 textová
    v2 obrázková
    v3 online filmy
    Ako sa stat
    Uploaderom
    Online
    Filmy
    Forum
    Pravidlá
    BitTorrent
    klient
    pruzinky
    Meno: Heslo:
    Zaregistrovat
    Po zaregistrovaní mozte volne stahovat
    Zabudol som heslo

    Torrent's details
    Hancock (CZ)(2008) = CSFD 66% Názov:Hancock (CZ)(2008) = CSFD 66% Hodnocení: Stiahnut
    Pozriet Online
    Kategória:Filmy CZ/SK dabing Velikost:1.4 GB BitTorrent klient
    Pridaný: Súbory:
    Skontrolován:2014-02-12 Peerov:2 (Seed: 0, Leech: 2)
    Zaner:Akcni,Fantasy,Komedie,Krimi Uploader:Uvidis, az ked budes
    VIP
    Kúp nám Pivo 1,10€

    Kúp nám Pivo
    Podporte nas na Facebooku !
    Pridaj do zalozky
    Pridaj do zalozky




    Jazyk: CZ
    Titulky: NE
    Popis:
    Akční / Fantasy / Krimi / Komedie
    USA, 2008, 88 min
    Režie: Peter Berg
    Scénář: Vincent Ngo, Vince Gilligan
    Kamera: Tobias A. Schliessler
    Hudba: John Powell
    Hrají: Will Smith, (Charlize Theron - ), Jason Bateman, Jae Head, Daeg Faerch, Darrell Foster, Thomas Lennon, Eddie Marsan, Johnny Galecki, Martin Klebba, Mike Epps, Donald Gibb, Michael Mann, Daniel Quinn, Atticus Shaffer, Kyla Dang, Mike Cochrane, Giovanni V. Giusti, David Hill


    Odkaz CSFD: http://www.csfd.cz/film/226773-hancock/
    Obsah
    zobrazit všechny obsahy
    Existují hrdinové … existují super hrdinové… a pak je tu Hancock (Will Smith). S velkými schopnostmi přichází i velká zodpovědnost – to vědí všichni – všichni až na Hancocka. Je popudlivý, konfliktní, sarkastický a nepochopený a jeho dobře míněné hrdinské skutky by měly splnit účel a zachránit nespočet životů, ale vždycky to vypadá, že místo toho zanechává za sebou spoušť. Veřejnost má toho všeho konečně dost – dobří obyvatelé Los Angeles jsou vděčni za svého místního hrdinu, ale rádi by věděli, co kdy komu udělali, že si tohohle chlapíka zasloužili. Hancock není typem člověka, kterého zajímá, co si o něm ostatní lidé myslí – do dne, kdy zachrání život Raye Embreyho (Jason Bateman), který pracuje jako PR executive (osoba zodpovědná za styk s veřejností) a kdy začíná cynický super hrdina zjišťovat, že nakonec má přece jen svou zranitelnou stránku. To, aby to pochopil, bude pro Hancocka největší výzvou, jaké dosud čelil – a úkolem, který se může zdát nemožným, protože Rayova žena Mary ((Charlize Theron - )) ho pokládá za ztracený případ.

    Mediainfo:

    Quote:
    General
    Complete name                            : D:\FILMY\torrenty\Hancock.CZ\Hancock CZ.avi
    Format                                   : AVI
    Format/Info                              : Audio Video Interleave
    File size                                : 1.35 GiB
    Duration                                 : 1h 28mn
    Overall bit rate                         : 2 191 Kbps
    Movie name                               : DVD_VOLUME.Title1.DVDRip
    Writing application                      : Lavf52.17.0
    Original source form/Name                : DVD_VOLUME

    Video
    ID                                       : 0
    Format                                   : MPEG-4 Visual
    Format profile                           : Simple@L3
    Format settings, BVOP                    : No
    Format settings, QPel                    : No
    Format settings, GMC                     : No warppoints
    Format settings, Matrix                  : Default (H.263)
    Codec ID                                 : XVID
    Codec ID/Hint                            : XviD
    Duration                                 : 1h 28mn
    Bit rate                                 : 1 796 Kbps
    Width                                    : 640 pixels
    Height                                   : 352 pixels
    Display aspect ratio                     : 16:9
    Frame rate                               : 25.000 fps
    Color space                              : YUV
    Chroma subsampling                       : 4:2:0
    Bit depth                                : 8 bits
    Scan type                                : Progressive
    Compression mode                         : Lossy
    Bits/(Pixel*Frame)                       : 0.319
    Stream size                              : 1.11 GiB (82%)
    Writing library                          : XviD 1.1.2 (UTC 2006-11-01)

    Audio
    ID                                       : 1
    Format                                   : AC-3
    Format/Info                              : Audio Coding 3
    Mode extension                           : CM (complete main)
    Format settings, Endianness              : Big
    Codec ID                                 : 2000
    Duration                                 : 1h 28mn
    Bit rate mode                            : Constant
    Bit rate                                 : 384 Kbps
    Channel(s)                               : 6 channels
    Channel positions                        : Front: L C R, Side: L R, LFE
    Sampling rate                            : 48.0 KHz
    Bit depth                                : 16 bits
    Compression mode                         : Lossy
    Stream size                              : 243 MiB (18%)
    Alignment                                : Aligned on interleaves
    Interleave, duration                     : 32 ms (0.80 video frame)
    Interleave, preload duration             : 32 ms







    Upozornenie:
    Ziadny zo zobrazených súborov sa nenachádza na tomto serveri. Server slúzi len k síreniu vlastnorucne vytvorených aplikácií, videí, hudby ai. Autori stránok nenesú ziadnu zodpovednost za zverejnené odkazy, komentáre a obsah súborov. Vsetky komentáre, odkazy, súbory ktoré by svojou povahou mohli byt v rozpore zo zákonmi sem vkladáte na vlastnú zodpovednost. Autori stránok si vyhradzujú právo cenzúry odkazov, komentárov príp. súborov, ktoré by svojou povahou mohli byt v rozpore zo zákonmi a dobrými mravmi. Dodrzujte pravidlá!





    0
    Cvrcek
    Ratio 0.66

    VIP

    15/09/2013 18.33.41
    Pěkný Filmečk


    Back

    Na serveru se nenalézají zádne soubory. Za odkazy jsou výhradně zodpovědní uzivatelé a návstěvníci tohoto trackeru. Administrátor není zodpovědný za pridaný obsah ani za skody zpusobené uzivateli. Rozsirovat stránku nebo její obsah bez souhlasu ownera je zakázano. Nesmíte pouzívat tuto webovou stránku pro distribuovaní nebo download zádného materiálu pokud nemáte povolení od príslusného vlastníka práv. Uzivatelé jsou zodpovědní za dodrzování těchto pravidel a podmínek. Owner má právo kdykoliv změnit pravidla tohoto trackeru.

    [ Script trval: 0.086 sec. ] - [ GZIP: enabled ]
    BtiTracker (1.4.8) by Btiteam
    Je zhruba 22:03

    TOPlist