Tvoj účet nieje VIP.
Preto sú tvoje funkcie a možnosti značne obmedzené.
Pre aktiváciu VIP klikni sem.

Heavy Metal (1981)(DVDrip)(CZ) = CSFD 73% | SkTorrent.eu

Cz-SkTorrent open Tracker, na volné zdielanie súborov. Pridajte sa k nasej komunite a získajte pristup k tisícom torrentov.

  • vysoká rýchlost
  • úplne zdarma
  • prevazne Slovenska a Ceska scena
  • ste tu s nami uz 5 rokov - Dakujeme
  • Vitaj Guest (Login) Ako stahovat
    torrenty?
    Torrenty:
    v1 textová
    v2 obrázková
    v3 online filmy
    Ako sa stat
    Uploaderom
    Online
    Filmy
    Forum
    Pravidlá
    BitTorrent
    klient
    Meno: Heslo:
    Zaregistrovat
    Po zaregistrovaní mozte volne stahovat
    Zabudol som heslo

    Torrent's details
    Heavy Metal (1981)(DVDrip)(CZ)  = CSFD 73% Názov:Heavy Metal (1981)(DVDrip)(CZ) = CSFD 73% Hodnocení:N/A Stiahnut
    Pozriet Online
    Kategória:Filmy Kreslené Velikost:948.8 MB BitTorrent klient
    Pridaný: Súbory:
    Skontrolován:2021-08-02 Peerov:12 (Seed: 12, Leech: 0)
    Zaner:Animovany,Fantasy,Horor,Sci-Fi Uploader:Uvidis, az ked budes
    VIP
    Kúp nám Pivo 1,10€

    Kúp nám Pivo
    Podporte nas na Facebooku !
    Pridaj do zalozky
    Pridaj do zalozky








    Heavy Metal (1981)
    DVD rip

                   










    Animovaný / Sci-Fi / Fantasy / Horor
    Kanada / USA, 1981, 86 min (Special Edition: 90 min)
    Režie: Gerald Potterton
    Scénář: Daniel Goldberg, Len Blum
    Kamera: Peter Petronio
    Hudba: Elmer Bernstein
    Hrají: Harold Ramis, Eugene Levy, John Candy, Joe Flaherty, Jackie Burroughs, Don Francks, Vlasta Vrana, August Schellenberg, Rodger Bumpass, Al Waxman




    Legendární kreslená sci-fi z přelomu sedmdesátých a osmdesátých let HEAVY METAL byla ispirována stejnojmenným mezinárodním časopisem. HEAVY METAL vtahuje diváka do jedinečného světa zábavy, ve kterém se spolu snoubí film, hudba a výtvarné umění.








    Formát                                   : Matroska
    Format version                           : Version 4
    Velikost souboru                         : 949 MiB
    Duration                                 : 1 h 26 min
    Celkový BitRate                          : 1 530 kb/s
    Název filmu                              : Heavy Metal (1981)(DVDrip)(CZ) PHDTeam
    Encoded date                             : UTC 2021-08-02 19:45:44
    Použitý software                         : mkvmerge v60.0.0 ('Are We Copies?') 64-bit
    Enkódoval                                : libebml v1.4.2 + libmatroska v1.6.4

    Video
    ID                                       : 1
    Formát                                   : MPEG-4 Visual
    Format settings                          : BVOP
    Format settings, BVOP                    : Ano
    Format settings, QPel                    : Ne
    Format settings, GMC                     : No warppoints
    Format settings, Matrix                  : Default (H.263)
    Codec ID                                 : V_MS/VFW/FOURCC / DX50
    Codec ID/Hint                            : DivX 5
    Duration                                 : 1 h 26 min
    Bit rate                                 : 1 400 kb/s
    Nominal bit rate                         : 4 854 kb/s
    Šířka                                    : 720pixely
    Výška                                    : 400pixely
    Poměr stran                              : 16:9
    Frame rate mode                          : Constant
    Frame rate                               : 25,000 FPS
    Color space                              : YUV
    Chroma subsampling                       : 4:2:0
    Bit depth                                : 8 bits
    Scan type                                : Progressive
    Compression mode                         : Lossy
    Bits/(Pixel*Frame)                       : 0.194
    Stream size                              : 868 MiB (92%)
    Titul                                    : Heavy Metal (1981)(DVDrip)(CZ) PHDTeam
    Enkódoval                                : DivX 6.8.5 (UTC 2009-08-20)
    Default                                  : Ano
    Forced                                   : Ne

    Audio
    ID                                       : 2
    Formát                                   : MPEG Audio
    Format version                           : Version 1
    Format profile                           : Layer 3
    Format settings                          : Joint stereo / MS Stereo
    Codec ID                                 : A_MPEG/L3
    Codec ID/Hint                            : MP3
    Duration                                 : 1 h 26 min
    Bit rate mode                            : Constant
    Bit rate                                 : 128 kb/s
    Kanál(y)                                 : 2 kanály
    Sampling rate                            : 48,0 kHz
    Frame rate                               : 41,667 FPS (1152 SPF)
    Compression mode                         : Lossy
    Stream size                              : 79,3 MiB (8%)
    Titul                                    : CZ MP3 2.0
    Jazyk                                    : Czech
    Default                                  : Ano
    Forced                                   : Ne



















    Mitchell, troll1349, Marty1983, stromtom,

    + Pridaj vlastnu verziu tohto torrentu +


    Upozornenie:
    Ziadny zo zobrazených súborov sa nenachádza na tomto serveri. Server slúzi len k síreniu vlastnorucne vytvorených aplikácií, videí, hudby ai. Autori stránok nenesú ziadnu zodpovednost za zverejnené odkazy, komentáre a obsah súborov. Vsetky komentáre, odkazy, súbory ktoré by svojou povahou mohli byt v rozpore zo zákonmi sem vkladáte na vlastnú zodpovednost. Autori stránok si vyhradzujú právo cenzúry odkazov, komentárov príp. súborov, ktoré by svojou povahou mohli byt v rozpore zo zákonmi a dobrými mravmi. Dodrzujte pravidlá!


    No comments...


    Back

    Na serveru se nenalézají zádne soubory. Za odkazy jsou výhradně zodpovědní uzivatelé a návstěvníci tohoto trackeru. Administrátor není zodpovědný za pridaný obsah ani za skody zpusobené uzivateli. Rozsirovat stránku nebo její obsah bez souhlasu ownera je zakázano. Nesmíte pouzívat tuto webovou stránku pro distribuovaní nebo download zádného materiálu pokud nemáte povolení od príslusného vlastníka práv. Uzivatelé jsou zodpovědní za dodrzování těchto pravidel a podmínek. Owner má právo kdykoliv změnit pravidla tohoto trackeru.

    [ Script trval: 0.025 sec. ] - [ GZIP: enabled ]
    Je zhruba 16:27

    TOPlist