Tvoj účet nieje VIP.
Preto sú tvoje funkcie a možnosti značne obmedzené.
Pre aktiváciu VIP klikni sem.

Heroes of Envell: Konec hry / Heroes of Envell: Exit Game (2018)(1080p)(HDTv)(CZ/EN/HU) | SkTorrent.eu

Cz-SkTorrent open Tracker, na volné zdielanie súborov. Pridajte sa k nasej komunite a získajte pristup k tisícom torrentov.

  • vysoká rýchlost
  • úplne zdarma
  • prevazne Slovenska a Ceska scena
  • ste tu s nami uz 5 rokov - Dakujeme
  • Vitaj Guest (Login) Ako stahovat
    torrenty?
    Torrenty:
    v1 textová
    v2 obrázková
    v3 online filmy
    Ako sa stat
    Uploaderom
    Online
    Filmy
    Forum
    Pravidlá
    BitTorrent
    klient
    Meno: Heslo:
    Zaregistrovat
    Po zaregistrovaní mozte volne stahovat
    Zabudol som heslo

    Torrent's details
    Heroes of Envell: Konec hry / Heroes of Envell: Exit Game (2018)(1080p)(HDTv)(CZ/EN/HU) Názov:Heroes of Envell: Konec hry / Heroes of Envell: Exit Game (2018)(1080p)(HDTv)(CZ/EN/HU) Hodnocení:N/A Stiahnut
    Pozriet Online
    Kategória:Filmy Kreslené Velikost:3.5 GB BitTorrent klient
    Pridaný: Súbory:
    Skontrolován:2021-11-23 Peerov:5 (Seed: 5, Leech: 0)
    Zaner:Akcni,Animovany,Dobrodruzny Uploader:Uvidis, az ked budes
    VIP
    Kúp nám Pivo 1,10€

    Kúp nám Pivo
    Podporte nas na Facebooku !
    Pridaj do zalozky
    Pridaj do zalozky








    Heroes of Envell: Konec hry (2018)
    HDTV HBO rip CZ / HU a púvodní dabing + CZ/EN tit

                   










    Animovaný
    Rusko, 2018, 96 min
    Režie: Anton Lanšakov
    Scénář: Anton Lanšakov
    Hrají: Jevgenij Michejev, Andrej Šiškov, Vitalij Ščerbina, Boris Repetur, Vladimir Antonik, Jola Saňko




    Vítejte ve světě počítačové hry "Heroes of Envell", který je skutečnější, než si myslíte. Překážky, nepřátelé, zbraně – vše je zde opravdové. Pokud chcete překlenout propast, raději skočte doopravdy! Portálem do digitálního světa je tajemný notebook, s jehož pomocí hráči vstupují do hry a zase z ní vystupují. Čtyři studenti – Art, Vic, Phil a Kira – náhodou našli bránu do Envellu. Naši hrdinové zde získají superschopnosti a dozvědí se, že se zlý boss Morgarth snaží uniknout do skutečného světa a jedině oni ho mohou zastavit.








    Formát                                   : Matroska
    Format version                           : Version 4
    Velikost souboru                         : 3,50 GiB
    Duration                                 : 1 h 35 min
    Celkový BitRate                          : 5 255 kb/s
    Název filmu                              : Heroes of Envell - Konec hry (2018)(1080p)(FullHD)(CZ-EN-HU) PHDTeam 2021
    Encoded date                             : UTC 2021-11-23 18:59:34
    Použitý software                         : mkvmerge v63.0.0 ('Everything') 64-bit
    Enkódoval                                : libebml v1.4.2 + libmatroska v1.6.4

    Video
    ID                                       : 1
    Formát                                   : AVC
    Formát/Info                              : Advanced Video Codec
    Format profile                           : High@L4
    Format settings                          : CABAC / 4 Ref Frames
    Format settings, CABAC                   : Ano
    Format settings, Reference frames        : 4 frames
    Codec ID                                 : V_MPEG4/ISO/AVC
    Duration                                 : 1 h 35 min
    Bit rate                                 : 4 322 kb/s
    Šířka                                    : 1 920pixely
    Výška                                    : 1 080pixely
    Poměr stran                              : 16:9
    Frame rate mode                          : Variable
    Frame rate                               : 50,000 FPS
    Original frame rate                      : 25,000 FPS
    Standard                                 : Component
    Color space                              : YUV
    Chroma subsampling                       : 4:2:0
    Bit depth                                : 8 bits
    Scan type                                : Interlaced
    Scan type, store method                  : Separated fields
    Scan order                               : Top Field First
    Bits/(Pixel*Frame)                       : 0.042
    Stream size                              : 2,88 GiB (82%)
    Titul                                    : Heroes of Envell - Konec hry (2018)(1080p)(FullHD)(CZ-EN-HU) PHDTeam
    Default                                  : Ano
    Forced                                   : Ne
    Color range                              : Limited
    Color primaries                          : BT.709
    Transfer characteristics                 : BT.709
    Matrix coefficients                      : BT.709

    Audio #1
    ID                                       : 2
    Formát                                   : AC-3
    Formát/Info                              : Audio Coding 3
    Commercial name                          : Dolby Digital
    Codec ID                                 : A_AC3
    Duration                                 : 1 h 35 min
    Bit rate mode                            : Constant
    Bit rate                                 : 384 kb/s
    Kanál(y)                                 : 2 kanály
    Channel layout                           : L R
    Sampling rate                            : 48,0 kHz
    Frame rate                               : 31,250 FPS (1536 SPF)
    Compression mode                         : Lossy
    Video delay                              : 64 ms
    Stream size                              : 262 MiB (7%)
    Titul                                    : CZ AC3 DD 2.0
    Jazyk                                    : Czech
    Service kind                             : Complete Main
    Default                                  : Ano
    Forced                                   : Ne

    Audio #2
    ID                                       : 3
    Formát                                   : AC-3
    Formát/Info                              : Audio Coding 3
    Commercial name                          : Dolby Digital
    Codec ID                                 : A_AC3
    Duration                                 : 1 h 35 min
    Bit rate mode                            : Constant
    Bit rate                                 : 384 kb/s
    Kanál(y)                                 : 2 kanály
    Channel layout                           : L R
    Sampling rate                            : 48,0 kHz
    Frame rate                               : 31,250 FPS (1536 SPF)
    Compression mode                         : Lossy
    Video delay                              : 64 ms
    Stream size                              : 262 MiB (7%)
    Titul                                    : EN AC3 DD 2.0
    Jazyk                                    : English
    Service kind                             : Complete Main
    Default                                  : Ne
    Forced                                   : Ne

    Audio #3
    ID                                       : 4
    Formát                                   : MPEG Audio
    Format version                           : Version 1
    Format profile                           : Layer 2
    Codec ID                                 : A_MPEG/L2
    Codec ID/Hint                            : MP2
    Duration                                 : 1 h 35 min
    Bit rate mode                            : Constant
    Bit rate                                 : 160 kb/s
    Kanál(y)                                 : 2 kanály
    Sampling rate                            : 48,0 kHz
    Frame rate                               : 41,667 FPS (1152 SPF)
    Compression mode                         : Lossy
    Video delay                              : 64 ms
    Stream size                              : 109 MiB (3%)
    Titul                                    : HU 2.0 MPEG
    Jazyk                                    : Hungarian
    Default                                  : Ne
    Forced                                   : Ne

    Text #1
    ID                                       : 5
    Formát                                   : UTF-8
    Codec ID                                 : S_TEXT/UTF8
    Codec ID/Info                            : UTF-8 Plain Text
    Duration                                 : 1 h 34 min
    Bit rate                                 : 55 b/s
    Count of elements                        : 918
    Stream size                              : 38,2 KiB (0%)
    Titul                                    : CZ tit
    Jazyk                                    : Czech
    Default                                  : Ne
    Forced                                   : Ne

    Text #2
    ID                                       : 6
    Formát                                   : UTF-8
    Codec ID                                 : S_TEXT/UTF8
    Codec ID/Info                            : UTF-8 Plain Text
    Duration                                 : 1 h 34 min
    Bit rate                                 : 63 b/s
    Count of elements                        : 913
    Stream size                              : 44,0 KiB (0%)
    Titul                                    : EN tit
    Jazyk                                    : English
    Default                                  : Ne
    Forced                                   : Ne














    pohee, Trismegistos,

    + Pridaj vlastnu verziu tohto torrentu +


    Upozornenie:
    Ziadny zo zobrazených súborov sa nenachádza na tomto serveri. Server slúzi len k síreniu vlastnorucne vytvorených aplikácií, videí, hudby ai. Autori stránok nenesú ziadnu zodpovednost za zverejnené odkazy, komentáre a obsah súborov. Vsetky komentáre, odkazy, súbory ktoré by svojou povahou mohli byt v rozpore zo zákonmi sem vkladáte na vlastnú zodpovednost. Autori stránok si vyhradzujú právo cenzúry odkazov, komentárov príp. súborov, ktoré by svojou povahou mohli byt v rozpore zo zákonmi a dobrými mravmi. Dodrzujte pravidlá!





    0
    pohee
    Ratio 1.04

    Member+

    23/11/2021 21.14.48
    Kaj zje se tulal, hm?!? Vítej zpět.


    --------------
    >> 23/11/2021 21.16.01
    UPLOADER: Sorry ale Pretorian je do 15.12 prič, tak zaskakuji Som Power


    Back

    Na serveru se nenalézají zádne soubory. Za odkazy jsou výhradně zodpovědní uzivatelé a návstěvníci tohoto trackeru. Administrátor není zodpovědný za pridaný obsah ani za skody zpusobené uzivateli. Rozsirovat stránku nebo její obsah bez souhlasu ownera je zakázano. Nesmíte pouzívat tuto webovou stránku pro distribuovaní nebo download zádného materiálu pokud nemáte povolení od príslusného vlastníka práv. Uzivatelé jsou zodpovědní za dodrzování těchto pravidel a podmínek. Owner má právo kdykoliv změnit pravidla tohoto trackeru.

    [ Script trval: 0.031 sec. ] - [ GZIP: enabled ]
    Je zhruba 11:52
    sql

    TOPlist