Tvoj účet nieje VIP.
Preto sú tvoje funkcie a možnosti značne obmedzené.
Pre aktiváciu VIP klikni sem.

High school DxD Born S03 [WebRip] [720p] = CSFD 75% | SkTorrent.eu

Cz-SkTorrent open Tracker, na volné zdielanie súborov. Pridajte sa k nasej komunite a získajte pristup k tisícom torrentov.

  • vysoká rýchlost
  • úplne zdarma
  • prevazne Slovenska a Ceska scena
  • ste tu s nami uz 5 rokov - Dakujeme
  • Vitaj Guest (Login) Ako stahovat
    torrenty?
    Torrenty:
    v1 textová
    v2 obrázková
    v3 online filmy
    Ako sa stat
    Uploaderom
    Online
    Filmy
    Forum
    Pravidlá
    BitTorrent
    klient
    Meno: Heslo:
    Zaregistrovat
    Po zaregistrovaní mozte volne stahovat
    Zabudol som heslo

    Torrent's details
    High school DxD Born S03 [WebRip] [720p] = CSFD 75% Názov:High school DxD Born S03 [WebRip] [720p] = CSFD 75% Hodnocení:N/A Stiahnut
    Pozriet Online
    Kategória:Seriál Velikost:2.1 GB BitTorrent klient
    Pridaný: Súbory:
    Skontrolován:2022-06-01 Peerov:5 (Seed: 5, Leech: 0)
    Zaner:Akcni,Animovany,Fantasy,Komedie Uploader:Uvidis, az ked budes
    VIP
    Kúp nám Pivo 1,10€

    Kúp nám Pivo
    Podporte nas na Facebooku !
    Pridaj do zalozky
    Pridaj do zalozky




    Highschool DxD Born S03 [WebRip] [720p] =CSFD 76%

    Jazyk: japonský, anglický
    Titulky: české
    Animovaný / Akční / Fantasy / Komedie
    Japonsko, 2015, 4 h 48 min (Minutáž: 24 min)
    Režie: Tecuja Janagisawa, Macuo Asami
    Předloha: Ichiei Ishibumi (komiks)
    Scénář: Takao Jošioka
    Kamera: Hirojuki Čiba
    Hudba: Rjosuke Nakaniši
    Hrají: Kendži Nodžima, Šizuka Itó, Džun'iči Suwabe, Jošicugu Macuoka, Ken Narita, Suzuko Mimori, Makoto Jasumura, Šinpači Cudži, Maaja Učida

    https://www.csfd.cz/film/309420-high-school-dxd/411137-high-school-dxd-born/prehled/

    Popis:
    Hyodoua Issei již není jen bezcenný úchyl, který ještě donedávna okukoval dámské šatny a věčně snil o dívčích ňadrech ve své dlani, ale postupem času získal i svoji vlastní sílu, naučil se novým dovednostem a spolu se svými přáteli porazil nebezpečné protivníky. Přesto ale, když se blíží jeho první letní prázdniny na nové škole, nečeká ho pouze povalování se na pláži a sledování dívčího poprsí v nepatrných bikinách. Spolu s ostatními má totiž doprovodit jejich paní Rias do podsvětí, kde mají navštívit její domovinu. Ovšem za vidinou prázdnin v rezidenci rodu Gremori je mnohem víc, než co se na první pohled zdá. Zlo na sebe nenechává dlouho čekat, nepřátelé číhají na každém kroku a životy Isseových přátel jsou ve smrtelném nebezpečí.


    MediaInfo:
    General
    Complete name               : Z:\Seed\Highschool DxD BorN - 3. série\Himitsu-Highschool_DxD_BorN_01_CZ.mp4
    Format                      : MPEG-4
    Format profile              : Base Media
    Codec ID                    : isom (isom/iso2/avc1/mp41)
    File size                   : 189 MiB
    Duration                    : 23 min 41 s
    Overall bit rate            : 1 116 kb/s
    Writing application         : Lavf56.25.101

    Video
    ID                          : 1
    Format                      : AVC
    Format/Info                 : Advanced Video Codec
    Format profile              : High@L3.1
    Format settings             : CABAC / 4 Ref Frames
    Format settings, CABAC      : Yes
    Format settings, Reference  : 4 frames
    Codec ID                    : avc1
    Codec ID/Info               : Advanced Video Coding
    Duration                    : 23 min 40 s
    Bit rate                    : 885 kb/s
    Width                       : 1 280 pixels
    Height                      : 720 pixels
    Display aspect ratio        : 16:9
    Frame rate mode             : Constant
    Frame rate                  : 23.976 (24000/1001) FPS
    Color space                 : YUV
    Chroma subsampling          : 4:2:0
    Bit depth                   : 8 bits
    Scan type                   : Progressive
    Bits/(Pixel*Frame)          : 0.040
    Stream size                 : 150 MiB (79%)
    Writing library             : x264 core 142 r2389 956c8d8
    Encoding settings           : cabac=1 / ref=3 / deblock=1:0:0 / analyse=0x3:0x133 / me=hex / subme=7 / psy=1 / psy_rd=1.00:0.00 / mixed_ref=1 / me_range=16 / chroma_me=1 / trellis=1 / 8x8dct=1 / cqm=0 / deadzone=21,11 / fast_pskip=1 / chroma_qp_offset=-2 / threads=6 / lookahead_threads=1 / sliced_threads=0 / nr=0 / decimate=1 / interlaced=0 / bluray_compat=0 / constrained_intra=0 / bframes=3 / b_pyramid=2 / b_adapt=1 / b_bias=0 / direct=1 / weightb=1 / open_gop=0 / weightp=2 / keyint=250 / keyint_min=25 / scenecut=40 / intra_refresh=0 / rc_lookahead=40 / rc=2pass / mbtree=1 / bitrate=885 / ratetol=1.0 / qcomp=0.60 / qpmin=10 / qpmax=51 / qpstep=4 / cplxblur=20.0 / qblur=0.5 / ip_ratio=1.40 / aq=1:1.00
    Codec configuration box     : avcC

    Audio
    ID                          : 2
    Format                      : AAC LC
    Format/Info                 : Advanced Audio Codec Low Complexity
    Codec ID                    : mp4a-40-2
    Duration                    : 23 min 41 s
    Bit rate mode               : Constant
    Bit rate                    : 224 kb/s
    Channel(s)                  : 2 channels
    Channel layout              : L R
    Sampling rate               : 48.0 kHz
    Frame rate                  : 46.875 FPS (1024 SPF)
    Compression mode            : Lossy
    Stream size                 : 37.9 MiB (20%)
    Language                    : Japanese
    Default                     : Yes
    Alternate group             : 1









    margharethe, xBajco, Balltar,

    + Pridaj vlastnu verziu tohto torrentu +


    Upozornenie:
    Ziadny zo zobrazených súborov sa nenachádza na tomto serveri. Server slúzi len k síreniu vlastnorucne vytvorených aplikácií, videí, hudby ai. Autori stránok nenesú ziadnu zodpovednost za zverejnené odkazy, komentáre a obsah súborov. Vsetky komentáre, odkazy, súbory ktoré by svojou povahou mohli byt v rozpore zo zákonmi sem vkladáte na vlastnú zodpovednost. Autori stránok si vyhradzujú právo cenzúry odkazov, komentárov príp. súborov, ktoré by svojou povahou mohli byt v rozpore zo zákonmi a dobrými mravmi. Dodrzujte pravidlá!


    No comments...


    Back

    Na serveru se nenalézají zádne soubory. Za odkazy jsou výhradně zodpovědní uzivatelé a návstěvníci tohoto trackeru. Administrátor není zodpovědný za pridaný obsah ani za skody zpusobené uzivateli. Rozsirovat stránku nebo její obsah bez souhlasu ownera je zakázano. Nesmíte pouzívat tuto webovou stránku pro distribuovaní nebo download zádného materiálu pokud nemáte povolení od príslusného vlastníka práv. Uzivatelé jsou zodpovědní za dodrzování těchto pravidel a podmínek. Owner má právo kdykoliv změnit pravidla tohoto trackeru.

    [ Script trval: 0.053 sec. ] - [ GZIP: enabled ]
    Je zhruba 11:12
    sql

    TOPlist