Tvoj účet nieje VIP.
Preto sú tvoje funkcie a možnosti značne obmedzené.
Pre aktiváciu VIP klikni sem.

Hleda se tata / Se busca papa (2020)[WEBRip] | SkTorrent.eu

Cz-SkTorrent open Tracker, na volné zdielanie súborov. Pridajte sa k nasej komunite a získajte pristup k tisícom torrentov.

  • vysoká rýchlost
  • úplne zdarma
  • prevazne Slovenska a Ceska scena
  • ste tu s nami uz 5 rokov - Dakujeme
  • Vitaj Guest (Login) Ako stahovat
    torrenty?
    Torrenty:
    v1 textová
    v2 obrázková
    v3 online filmy
    Ako sa stat
    Uploaderom
    Online
    Filmy
    Forum
    Pravidlá
    BitTorrent
    klient
    Meno: Heslo:
    Zaregistrovat
    Po zaregistrovaní mozte volne stahovat
    Zabudol som heslo

    Torrent's details
    Hleda se tata / Se busca papa (2020)[WEBRip] Názov:Hleda se tata / Se busca papa (2020)[WEBRip] Hodnocení:N/A Stiahnut
    Pozriet Online
    Kategória:Filmy s titulkama Velikost:1.3 GB BitTorrent klient
    Pridaný: Súbory:
    Skontrolován:2020-09-11 Peerov:9 (Seed: 9, Leech: 0)
    Zaner:Komedie,Rodinny Uploader:Uvidis, az ked budes
    VIP
    Kúp nám Pivo 1,10€

    Kúp nám Pivo
    Podporte nas na Facebooku !
    Pridaj do zalozky
    Pridaj do zalozky




    https://www.csfd.cz/film/908919-hleda-se-tata/videa/

    Jazyk: Španielsky
    Titulky:CZ

    Režie: Javier Colinas Medina
    Scénář: Javier Colinas Medina, Paulette Hernandez, Fernando… (více)
    Kamera: Jero Rod-García
    Hrají: Juan Pablo Medina, Ela Velden, Natalia Coronado, Silvia Navarro, Luis Ernesto Franco, Alberto Guerra, Patricia Reyes Spíndola, Rodrigo Murray, Gonzalo Garcia Vivanco, Luis Arrieta, Marisol del Olmo, Roberto Quijano, Lisette Morelos, Martha Claudia Moreno, Moises Arizmendi, Aleyda Gallardo, Mauricio Argüelles, Omar Fierro, David Fridman
    Producenti: Fernando Barreda Luna
    Kostýmy: Atzin Hernández
    Obsah
    Co udělá nebojácná holka, když jí máma zakáže účast v BMX závodu? Najme si náhradního tátu, který nemá co ztratit a všechno jí dovolí.(Netflix)


    Celý názov a cesta                       : C:\Majki Filmy\Dad.Wanted.2020.SPANISH.WEBRip.XviD.MP3-VXT\Dad.Wanted.2020.SPANISH.WEBRip.XviD.MP3-VXT.avi
    Formát                                   : AVI
    Formát/Info                              : Audio Video Interleave
    Profil formátu                           : OpenDML
    Veľkosť súboru                           : 1,29 GiB
    Trvanie                                  : 1 h 43 min
    Celkový dátový tok                       : 1 797 kb/s
    Názov filmu                              : RARBG - Dad.Wanted.2020.SPANISH.WEBRip.XviD.MP3-VXT
    Použitý software                         : Lavf58.20.100
    Komentár                                 : RARBG - Dad.Wanted.2020.SPANISH.WEBRip.XviD.MP3-VXT

    Video
    ID                                       : 0
    Formát                                   : MPEG-4 Visual
    Profil formátu                           : Simple@L5
    Format settings, BVOP                    : Nie
    Format settings, QPel                    : Nie
    Format settings, GMC                     : No warppoints
    Format settings, Matrix                  : Default (H.263)
    Označenie kodeku                         : XVID
    Označenie kodeku/Hint                    : XviD
    Trvanie                                  : 1 h 43 min
    Dátový tok                               : 1 590 kb/s
    Šírka                                    : 720 pixelov
    Výška                                    : 348 pixelov
    Pomer strán                              : 2,069
    Frekvencia snímok                        : 24,000 snímok/sek.
    Color space                              : YUV
    Chroma subsampling                       : 4:2:0
    Bit depth                                : 8 bitov
    Scan type                                : Progresívne
    Compression mode                         : Lossy
    Bitov/(Bod*Snímka)                       : 0.264
    Stream size                              : 1,15 GiB (88%)
    Titul                                    : RARBG - Dad.Wanted.2020.SPANISH.WEBRip.XviD.MP3-VXT
    Zakódoval                                : Lavc58.35.100

    Audio
    ID                                       : 1
    Formát                                   : MPEG Audio
    Format version                           : Version 1
    Profil formátu                           : Layer 3
    Nastavenia formátu                       : Joint stereo
    Označenie kodeku                         : 55
    Označenie kodeku/Hint                    : MP3
    Trvanie                                  : 1 h 43 min
    Režim dátového toku                      : Konštantný dátový tok
    Dátový tok                               : 192 kb/s
    Kanál(y)                                 : 2 kanály
    Sampling rate                            : 48,0 kHz
    Compression mode                         : Lossy
    Stream size                              : 142 MiB (11%)
    Alignment                                : Aligned on interleaves
    Interleave, duration                     : 24  ms (0,58 video frame)
    Interleave, preload duration             : 24  ms
    Titul                                    : RARBG - Dad.Wanted.2020.SPANISH.WEBRip.XviD.MP3-VXT
    Zakódoval                                : LAME3.99.5










    + Pridaj vlastnu verziu tohto torrentu +


    Upozornenie:
    Ziadny zo zobrazených súborov sa nenachádza na tomto serveri. Server slúzi len k síreniu vlastnorucne vytvorených aplikácií, videí, hudby ai. Autori stránok nenesú ziadnu zodpovednost za zverejnené odkazy, komentáre a obsah súborov. Vsetky komentáre, odkazy, súbory ktoré by svojou povahou mohli byt v rozpore zo zákonmi sem vkladáte na vlastnú zodpovednost. Autori stránok si vyhradzujú právo cenzúry odkazov, komentárov príp. súborov, ktoré by svojou povahou mohli byt v rozpore zo zákonmi a dobrými mravmi. Dodrzujte pravidlá!


    No comments...


    Back

    Na serveru se nenalézají zádne soubory. Za odkazy jsou výhradně zodpovědní uzivatelé a návstěvníci tohoto trackeru. Administrátor není zodpovědný za pridaný obsah ani za skody zpusobené uzivateli. Rozsirovat stránku nebo její obsah bez souhlasu ownera je zakázano. Nesmíte pouzívat tuto webovou stránku pro distribuovaní nebo download zádného materiálu pokud nemáte povolení od príslusného vlastníka práv. Uzivatelé jsou zodpovědní za dodrzování těchto pravidel a podmínek. Owner má právo kdykoliv změnit pravidla tohoto trackeru.

    [ Script trval: 0.019 sec. ] - [ GZIP: enabled ]
    BtiTracker (1.4.8) by Btiteam
    Je zhruba 07:19

    TOPlist